+11

Первому игроку приготовиться / Ready Player One (2018) Blu-ray CEE 2160p | 4K | HDR | Dolby Vision | Лицензия

Информация о фильме
Название: Первому игроку приготовиться
Оригинальное название: Ready Player One
Год выхода: 2018
Жанр: Фантастика, боевик, приключения
Режиссер: Стивен Спилберг
В ролях: Тай Шеридан, Оливия Кук, Бен Мендельсон, Лина Уэйте, ТиДжей Миллер, Саймон Пегг, Марк Райлэнс, Филип Чжао, Уин Морисаки, Ханна Джон-Кэймен, Ралф Айнесон, Сьюзэн Линч, Клер Хиггинс, Лоуренс Спэллман, Пердита Викс, Джоэль МакКормэк, Кит Коннор, Лео Хеллер, Линн Уилморт

О фильме: Действие фильма происходит в 2045 году, мир погружается в хаос и находится на грани коллапса. Люди ищут спасения в игре OASIS — огромной вселенной виртуальной реальности. Ее создатель, гениальный и эксцентричный Джеймс Холлидэй, оставляет уникальное завещание. Все его колоссальное состояние получит игрок, первым обнаруживший цифровое «пасхальное яйцо», которое миллиардер спрятал где-то на просторах OASISа. Запущенный им квест охватывает весь мир. Совершенно негероический парень по имени Уэйд Уоттс решает принять участие в состязании, с головой бросаясь в головокружительную, искажающую реальность погоню за сокровищами по фантастической вселенной, полной загадок, открытий и опасностей.

Страна: США
Студия: Warner Bros. Pictures
Продолжительность: 02:19:58
Перевод: Дублированный | [лицензия] (Blu-ray CEE)


Качество: Blu-Ray 2160p
Видео: MPEG-H HEVC HDR Video, 3840x2160, 62963 Kbit/s, 23.976 fps
Звук: Русский, польский, венгерский, тайский, турецкий, чешский, португальский, испанский, французский, английский (AC3, 6 ch, 384 Кбит/с), итальянский (DTS-HD MA, 6 ch, 2329 Кбит/с), английский (TrueHD, 8 ch, 3666 Кбит/с), (AC3, 6 ch, 448 Кбит/с)
Субтитры: Русские, английские, французские, итальянские, китайские, корейские, испанские, португальские, арабские, чешские, датские, финские, венгерские, норвежские, польские, румынские, турецкие, тайские

Первому игроку приготовиться / Ready Player One (2018) Blu-ray CEE 2160p | 4K | HDR | Dolby Vision | Лицензия

Релиз от:

Авторизуйтесь для получения доступа к скачиванию

Нет аккаунта? Регистрация открыта и займёт меньше минуты

Вход Регистрация

Disc Title: Ready Player One
Disc Label: Ready.Player.One.2018.COMPLETE.UHD.BLURAY-COASTER
Disc Size: 87,772,413,659 bytes
Protection: AACS2
Extras: Ultra HD, BD-Java
BDInfo: 0.7.5.5

Notes:

BDINFO HOME:
Cinema Squid (old)
http://www.cinemasquid.com/blu-ray/tools/bdinfo
UniqProject GitHub (new)
https://github.com/UniqProject/BDInfo

INCLUDES FORUMS REPORT FOR:
AVS Forum Blu-ray Audio and Video Specifications Thread
http://www.avsforum.com/avs-vb/showthread.php?t=1155731


********************
PLAYLIST: 00800.MPLS
********************

<--- BEGIN FORUMS PASTE --->


                                                                                                                Total   Video                                             
Title                                                           Codec   Length  Movie Size      Disc Size       Bitrate Bitrate Main Audio Track                          Secondary Audio Track
-----                                                           ------  ------- --------------  --------------  ------- ------- ------------------                        ---------------------
00800.MPLS                                                      HEVC    2:19:57 85,396,408,320  87,772,413,659  81.35   62.96   Dolby Atmos 7.1 3666Kbps (48kHz/16-bit)   DTS-HD Master 5.1 2329Kbps (48kHz/16-bit)




DISC INFO:

Disc Title:     Ready Player One
Disc Label:     Ready.Player.One.2018.COMPLETE.UHD.BLURAY-COASTER
Disc Size:      87,772,413,659 bytes
Protection:     AACS2
Extras:         Ultra HD, BD-Java
BDInfo:         0.7.5.5

PLAYLIST REPORT:

Name:                   00800.MPLS
Length:                 2:19:57.597 (h:m:s.ms)
Size:                   85,396,408,320 bytes
Total Bitrate:          81.35 Mbps

(*) Indicates included stream hidden by this playlist.

VIDEO:

Codec                   Bitrate             Description     
-----                   -------             -----------     
MPEG-H HEVC Video       62962 kbps          2160p / 23.976 fps / 16:9 / Main 10 @ Level 5.1 @ High / 10 bits / HDR10 / BT.2020
* MPEG-H HEVC Video     65 kbps             1080p / 23.976 fps / 16:9 / Main 10 @ Level 5.1 @ High / 10 bits / Dolby Vision / BT.2020

AUDIO:

Codec                           Language        Bitrate         Description     
-----                           --------        -------         -----------     
Dolby TrueHD/Atmos Audio        English         3666 kbps       7.1 / 48 kHz /  3218 kbps / 16-bit (AC3 Embedded: 5.1-EX / 48 kHz /   448 kbps / DN -27dB)
DTS-HD Master Audio             English         2329 kbps       5.1 / 48 kHz /  2329 kbps / 16-bit (DTS Core: 5.1 / 48 kHz /  1509 kbps / 16-bit)
Dolby Digital Audio             English         384 kbps        5.1 / 48 kHz /   384 kbps / DN -27dB
Dolby Digital Audio             French          384 kbps        5.1 / 48 kHz /   384 kbps / DN -27dB
DTS-HD Master Audio             Italian         2303 kbps       5.1 / 48 kHz /  2303 kbps / 16-bit (DTS Core: 5.1 / 48 kHz /  1509 kbps / 16-bit)
Dolby Digital Audio             Spanish         384 kbps        5.1 / 48 kHz /   384 kbps / DN -27dB
Dolby Digital Audio             Portuguese      384 kbps        5.1 / 48 kHz /   384 kbps / DN -27dB
Dolby Digital Audio             Czech           384 kbps        5.1 / 48 kHz /   384 kbps / DN -27dB
Dolby Digital Audio             Hungarian       384 kbps        5.1 / 48 kHz /   384 kbps / DN -27dB
Dolby Digital Audio             Polish          384 kbps        5.1 / 48 kHz /   384 kbps / DN -27dB
Dolby Digital Audio             Polish          384 kbps        5.1 / 48 kHz /   384 kbps / DN -27dB
Dolby Digital Audio             Russian         384 kbps        5.1 / 48 kHz /   384 kbps / DN -27dB
Dolby Digital Audio             Thai            384 kbps        5.1 / 48 kHz /   384 kbps / DN -27dB
Dolby Digital Audio             Turkish         384 kbps        5.1 / 48 kHz /   384 kbps / DN -27dB

SUBTITLES:

Codec                           Language        Bitrate         Description     
-----                           --------        -------         -----------     
Presentation Graphics           English         33.947 kbps                     
Presentation Graphics           French          25.620 kbps                     
Presentation Graphics           Italian         32.638 kbps                     
Presentation Graphics           Chinese         28.721 kbps                     
Presentation Graphics           Chinese         27.556 kbps                     
Presentation Graphics           Korean          18.229 kbps                     
Presentation Graphics           Spanish         27.995 kbps                     
Presentation Graphics           Portuguese      29.492 kbps                     
Presentation Graphics           Arabic          17.681 kbps                     
Presentation Graphics           Czech           28.627 kbps                     
Presentation Graphics           Danish          26.986 kbps                     
Presentation Graphics           Finnish         30.128 kbps                     
Presentation Graphics           Hungarian       26.188 kbps                     
Presentation Graphics           Norwegian       25.615 kbps                     
Presentation Graphics           Polish          25.349 kbps                     
Presentation Graphics           Romanian        27.913 kbps                     
Presentation Graphics           Russian         29.864 kbps                     
Presentation Graphics           Swedish         28.935 kbps                     
Presentation Graphics           Thai            27.799 kbps                     
Presentation Graphics           Turkish         28.633 kbps                     
Presentation Graphics           French          0.353 kbps                      
Presentation Graphics           Italian         0.876 kbps                      
Presentation Graphics           Spanish         0.692 kbps                      
Presentation Graphics           Portuguese      0.696 kbps                      
Presentation Graphics           Czech           0.656 kbps                      
Presentation Graphics           Hungarian       0.400 kbps                      
Presentation Graphics           Polish          0.266 kbps                      
Presentation Graphics           Russian         0.691 kbps                      
Presentation Graphics           Thai            0.540 kbps                      
Presentation Graphics           Turkish         0.643 kbps                      

FILES:

Name            Time In         Length          Size            Total Bitrate   
----            -------         ------          ----            -------------   
00014.M2TS      0:00:00.000     2:19:57.597     85,396,408,320  81,352          

CHAPTERS:

Number          Time In         Length          Avg Video Rate  Max 1-Sec Rate  Max 1-Sec Time  Max 5-Sec Rate  Max 5-Sec Time  Max 10Sec Rate  Max 10Sec Time  Avg Frame Size  Max Frame Size  Max Frame Time  
------          -------         ------          --------------  --------------  --------------  --------------  --------------  --------------  --------------  --------------  --------------  --------------  
1               0:00:00.000     0:10:08.232     59,435 kbps     116,479 kbps    00:03:54.484    87,194 kbps     00:03:54.192    82,504 kbps     00:08:42.104    0 bytes         978,092 bytes   00:10:01.309    
2               0:10:08.232     0:10:10.026     63,146 kbps     126,148 kbps    00:12:59.904    93,736 kbps     00:12:55.983    84,910 kbps     00:12:50.978    0 bytes         1,206,381 bytes 00:13:00.237    
3               0:20:18.258     0:10:19.368     66,402 kbps     115,639 kbps    00:28:26.037    86,935 kbps     00:28:24.828    81,519 kbps     00:22:23.842    0 bytes         1,447,808 bytes 00:28:26.079    
4               0:30:37.627     0:10:00.641     63,030 kbps     98,383 kbps     00:34:29.525    85,820 kbps     00:34:18.264    82,461 kbps     00:34:17.263    0 bytes         1,096,587 bytes 00:34:29.567    
5               0:40:38.269     0:09:30.695     65,907 kbps     121,242 kbps    00:48:15.976    86,452 kbps     00:42:02.645    82,515 kbps     00:42:04.563    0 bytes         1,137,861 bytes 00:50:03.250    
6               0:50:08.964     0:12:52.813     64,401 kbps     100,966 kbps    00:54:16.127    85,789 kbps     00:56:00.857    80,928 kbps     00:56:00.857    0 bytes         808,358 bytes   00:56:04.652    
7               1:03:01.777     0:08:53.491     66,433 kbps     101,870 kbps    01:06:08.047    84,224 kbps     01:05:58.454    82,826 kbps     01:05:59.413    0 bytes         773,123 bytes   01:07:33.549    
8               1:11:55.269     0:08:19.457     62,703 kbps     113,472 kbps    01:12:10.993    86,618 kbps     01:18:49.725    81,334 kbps     01:14:52.488    0 bytes         1,037,815 bytes 01:20:09.429    
9               1:20:14.726     0:10:43.601     65,707 kbps     107,615 kbps    01:24:58.134    87,947 kbps     01:24:44.037    83,374 kbps     01:24:44.037    0 bytes         1,073,086 bytes 01:24:59.677    
10              1:30:58.327     0:12:28.414     63,398 kbps     118,663 kbps    01:33:46.662    87,585 kbps     01:41:18.947    83,204 kbps     01:38:54.678    0 bytes         1,053,194 bytes 01:33:46.704    
11              1:43:26.742     0:09:35.408     64,414 kbps     116,677 kbps    01:49:21.680    91,605 kbps     01:45:26.611    82,934 kbps     01:46:49.528    0 bytes         1,068,871 bytes 01:46:55.700    
12              1:53:02.150     0:11:18.010     65,037 kbps     118,775 kbps    01:55:19.662    87,496 kbps     02:02:22.585    82,168 kbps     01:55:34.052    0 bytes         1,028,416 bytes 02:02:31.344    
13              2:04:20.161     0:04:57.088     64,303 kbps     92,357 kbps     02:05:28.354    82,349 kbps     02:05:58.467    80,567 kbps     02:06:23.617    0 bytes         650,682 bytes   02:09:13.871    
14              2:09:17.249     0:10:40.348     48,309 kbps     108,591 kbps    02:19:54.094    81,236 kbps     02:18:55.035    80,393 kbps     02:18:54.659    0 bytes         1,678,960 bytes 02:19:53.760    

STREAM DIAGNOSTICS:

File            PID             Type            Codec           Language                Seconds                 Bitrate                 Bytes           Packets         
----            ---             ----            -----           --------                --------------          --------------          -------------   -----           
00014.M2TS      4113 (0x1011)   0x24            HEVC                                    8397.514                62,963                  66,091,973,487  359,316,231     
00014.M2TS      4117 (0x1015)   0x24            HEVC                                    8397.514                65                      68,683,349      439,516         
00014.M2TS      4352 (0x1100)   0x83            Atmos           eng (English)           8397.514                3,666                   3,848,412,876   26,118,404      
00014.M2TS      4353 (0x1101)   0x86            DTS-HD MA       eng (English)           8397.514                2,329                   2,444,545,624   14,610,565      
00014.M2TS      4354 (0x1102)   0x81            AC3             eng (English)           8397.514                384                     403,084,800     2,361,825       
00014.M2TS      4355 (0x1103)   0x81            AC3             fra (French)            8397.514                384                     403,084,800     2,361,825       
00014.M2TS      4356 (0x1104)   0x86            DTS-HD MA       ita (Italian)           8397.514                2,303                   2,417,850,076   14,470,845      
00014.M2TS      4357 (0x1105)   0x81            AC3             spa (Spanish)           8397.514                384                     403,084,800     2,361,825       
00014.M2TS      4358 (0x1106)   0x81            AC3             por (Portuguese)        8397.514                384                     403,084,800     2,361,825       
00014.M2TS      4359 (0x1107)   0x81            AC3             ces (Czech)             8397.514                384                     403,084,800     2,361,825       
00014.M2TS      4360 (0x1108)   0x81            AC3             hun (Hungarian)         8397.514                384                     403,084,800     2,361,825       
00014.M2TS      4361 (0x1109)   0x81            AC3             pol (Polish)            8397.514                384                     403,084,800     2,361,825       
00014.M2TS      4362 (0x110A)   0x81            AC3             pol (Polish)            8397.514                384                     403,084,800     2,361,825       
00014.M2TS      4363 (0x110B)   0x81            AC3             rus (Russian)           8397.514                384                     403,084,800     2,361,825       
00014.M2TS      4364 (0x110C)   0x81            AC3             tha (Thai)              8397.514                384                     403,084,800     2,361,825       
00014.M2TS      4365 (0x110D)   0x81            AC3             tur (Turkish)           8397.514                384                     403,084,800     2,361,825       
00014.M2TS      4768 (0x12A0)   0x90            PGS             eng (English)           8397.514                34                      35,634,367      206,507         
00014.M2TS      4769 (0x12A1)   0x90            PGS             fra (French)            8397.514                26                      26,893,693      157,336         
00014.M2TS      4770 (0x12A2)   0x90            PGS             ita (Italian)           8397.514                33                      34,260,092      199,418         
00014.M2TS      4771 (0x12A3)   0x90            PGS             zho (Chinese)           8397.514                29                      30,148,341      174,253         
00014.M2TS      4772 (0x12A4)   0x90            PGS             zho (Chinese)           8397.514                28                      28,926,282      168,042         
00014.M2TS      4773 (0x12A5)   0x90            PGS             kor (Korean)            8397.514                18                      19,135,152      115,118         
00014.M2TS      4774 (0x12A6)   0x90            PGS             spa (Spanish)           8397.514                28                      29,387,053      170,958         
00014.M2TS      4775 (0x12A7)   0x90            PGS             por (Portuguese)        8397.514                29                      30,958,263      179,468         
00014.M2TS      4776 (0x12A8)   0x90            PGS             ara (Arabic)            8397.514                18                      18,559,818      112,211         
00014.M2TS      4777 (0x12A9)   0x90            PGS             ces (Czech)             8397.514                29                      30,049,847      174,529         
00014.M2TS      4778 (0x12AA)   0x90            PGS             dan (Danish)            8397.514                27                      28,327,574      162,763         
00014.M2TS      4779 (0x12AB)   0x90            PGS             fin (Finnish)           8397.514                30                      31,625,256      183,263         
00014.M2TS      4780 (0x12AC)   0x90            PGS             hun (Hungarian)         8397.514                26                      27,490,034      158,239         
00014.M2TS      4781 (0x12AD)   0x90            PGS             nor (Norwegian)         8397.514                26                      26,888,091      154,989         
00014.M2TS      4782 (0x12AE)   0x90            PGS             pol (Polish)            8397.514                25                      26,609,360      154,889         
00014.M2TS      4783 (0x12AF)   0x90            PGS             ron (Romanian)          8397.514                28                      29,300,780      169,429         
00014.M2TS      4784 (0x12B0)   0x90            PGS             rus (Russian)           8397.514                30                      31,348,792      180,239         
00014.M2TS      4785 (0x12B1)   0x90            PGS             swe (Swedish)           8397.514                29                      30,373,624      176,283         
00014.M2TS      4786 (0x12B2)   0x90            PGS             tha (Thai)              8397.514                28                      29,180,710      169,818         
00014.M2TS      4787 (0x12B3)   0x90            PGS             tur (Turkish)           8397.514                29                      30,056,182      174,459         
00014.M2TS      4788 (0x12B4)   0x90            PGS             fra (French)            8397.514                0                       370,568         2,130           
00014.M2TS      4789 (0x12B5)   0x90            PGS             ita (Italian)           8397.514                1                       919,086         5,344           
00014.M2TS      4790 (0x12B6)   0x90            PGS             spa (Spanish)           8397.514                1                       726,749         4,233           
00014.M2TS      4791 (0x12B7)   0x90            PGS             por (Portuguese)        8397.514                1                       730,961         4,266           
00014.M2TS      4792 (0x12B8)   0x90            PGS             ces (Czech)             8397.514                1                       688,267         4,046           
00014.M2TS      4793 (0x12B9)   0x90            PGS             hun (Hungarian)         8397.514                0                       419,923         2,452           
00014.M2TS      4794 (0x12BA)   0x90            PGS             pol (Polish)            8397.514                0                       279,450         1,651           
00014.M2TS      4795 (0x12BB)   0x90            PGS             rus (Russian)           8397.514                1                       725,257         4,195           
00014.M2TS      4796 (0x12BC)   0x90            PGS             tha (Thai)              8397.514                1                       566,562         3,363           
00014.M2TS      4797 (0x12BD)   0x90            PGS             tur (Turkish)           8397.514                1                       674,739         3,966           


<---- END FORUMS PASTE ---->

QUICK SUMMARY:

Disc Title: Ready Player One
Disc Label: Ready.Player.One.2018.COMPLETE.UHD.BLURAY-COASTER
Disc Size: 87,772,413,659 bytes
Protection: AACS2
Playlist: 00800.MPLS
Size: 85,396,408,320 bytes
Length: 2:19:57.597
Total Bitrate: 81.35 Mbps
Video: MPEG-H HEVC Video / 62962 kbps / 2160p / 23.976 fps / 16:9 / Main 10 @ Level 5.1 @ High / 10 bits / HDR10 / BT.2020
* Video: MPEG-H HEVC Video / 65 kbps / 1080p / 23.976 fps / 16:9 / Main 10 @ Level 5.1 @ High / 10 bits / Dolby Vision / BT.2020
Audio: English / Dolby TrueHD/Atmos Audio / 7.1 / 48 kHz / 3218 kbps / 16-bit (AC3 Embedded: 5.1-EX / 48 kHz / 448 kbps / DN -27dB)
Audio: English / DTS-HD Master Audio / 5.1 / 48 kHz / 2329 kbps / 16-bit (DTS Core: 5.1 / 48 kHz / 1509 kbps / 16-bit)
Audio: English / Dolby Digital Audio / 5.1 / 48 kHz / 384 kbps / DN -27dB
Audio: French / Dolby Digital Audio / 5.1 / 48 kHz / 384 kbps / DN -27dB
Audio: Italian / DTS-HD Master Audio / 5.1 / 48 kHz / 2303 kbps / 16-bit (DTS Core: 5.1 / 48 kHz / 1509 kbps / 16-bit)
Audio: Spanish / Dolby Digital Audio / 5.1 / 48 kHz / 384 kbps / DN -27dB
Audio: Portuguese / Dolby Digital Audio / 5.1 / 48 kHz / 384 kbps / DN -27dB
Audio: Czech / Dolby Digital Audio / 5.1 / 48 kHz / 384 kbps / DN -27dB
Audio: Hungarian / Dolby Digital Audio / 5.1 / 48 kHz / 384 kbps / DN -27dB
Audio: Polish / Dolby Digital Audio / 5.1 / 48 kHz / 384 kbps / DN -27dB
Audio: Polish / Dolby Digital Audio / 5.1 / 48 kHz / 384 kbps / DN -27dB
Audio: Russian / Dolby Digital Audio / 5.1 / 48 kHz / 384 kbps / DN -27dB
Audio: Thai / Dolby Digital Audio / 5.1 / 48 kHz / 384 kbps / DN -27dB
Audio: Turkish / Dolby Digital Audio / 5.1 / 48 kHz / 384 kbps / DN -27dB
Subtitle: English / 33.947 kbps
Subtitle: French / 25.620 kbps
Subtitle: Italian / 32.638 kbps
Subtitle: Chinese / 28.721 kbps
Subtitle: Chinese / 27.556 kbps
Subtitle: Korean / 18.229 kbps
Subtitle: Spanish / 27.995 kbps
Subtitle: Portuguese / 29.492 kbps
Subtitle: Arabic / 17.681 kbps
Subtitle: Czech / 28.627 kbps
Subtitle: Danish / 26.986 kbps
Subtitle: Finnish / 30.128 kbps
Subtitle: Hungarian / 26.188 kbps
Subtitle: Norwegian / 25.615 kbps
Subtitle: Polish / 25.349 kbps
Subtitle: Romanian / 27.913 kbps
Subtitle: Russian / 29.864 kbps
Subtitle: Swedish / 28.935 kbps
Subtitle: Thai / 27.799 kbps
Subtitle: Turkish / 28.633 kbps
Subtitle: French / 0.353 kbps
Subtitle: Italian / 0.876 kbps
Subtitle: Spanish / 0.692 kbps
Subtitle: Portuguese / 0.696 kbps
Subtitle: Czech / 0.656 kbps
Subtitle: Hungarian / 0.400 kbps
Subtitle: Polish / 0.266 kbps
Subtitle: Russian / 0.691 kbps
Subtitle: Thai / 0.540 kbps
Subtitle: Turkish / 0.643 kbps


********************
PLAYLIST: 00055.MPLS
********************

<--- BEGIN FORUMS PASTE --->

                                                                                                                Total   Video                                             
Title                                                           Codec   Length  Movie Size      Disc Size       Bitrate Bitrate Main Audio Track                          Secondary Audio Track
-----                                                           ------  ------- --------------  --------------  ------- ------- ------------------                        ---------------------
00055.MPLS                                                      HEVC    0:05:40 627,187,968     87,772,413,659  14.74   13.98                                             




DISC INFO:

Disc Title:     Ready Player One
Disc Label:     Ready.Player.One.2018.COMPLETE.UHD.BLURAY-COASTER
Disc Size:      87,772,413,659 bytes
Protection:     AACS2
Extras:         Ultra HD, BD-Java
BDInfo:         0.7.5.5

PLAYLIST REPORT:

Name:                   00055.MPLS
Length:                 0:05:40.340 (h:m:s.ms)
Size:                   627,187,968 bytes
Total Bitrate:          14.74 Mbps

(*) Indicates included stream hidden by this playlist.

VIDEO:

Codec                   Bitrate             Description     
-----                   -------             -----------     
MPEG-H HEVC Video       13977 kbps          2160p / 23.976 fps / 16:9 / Main 10 @ Level 5.1 @ High / 10 bits / HDR10 / BT.2020
* MPEG-H HEVC Video     57 kbps             1080p / 23.976 fps / 16:9 / Main 10 @ Level 5.1 @ High / 10 bits / Dolby Vision / BT.2020

FILES:

Name            Time In         Length          Size            Total Bitrate   
----            -------         ------          ----            -------------   
00004.M2TS      0:00:00.000     0:05:40.340     627,187,968     14,739          

CHAPTERS:

Number          Time In         Length          Avg Video Rate  Max 1-Sec Rate  Max 1-Sec Time  Max 5-Sec Rate  Max 5-Sec Time  Max 10Sec Rate  Max 10Sec Time  Avg Frame Size  Max Frame Size  Max Frame Time  
------          -------         ------          --------------  --------------  --------------  --------------  --------------  --------------  --------------  --------------  --------------  --------------  
1               0:00:00.000     0:00:10.009     12,623 kbps     13,984 kbps     00:00:00.583    13,480 kbps     00:00:00.583    12,610 kbps     00:00:00.000    0 bytes         511,110 bytes   00:00:00.917    
2               0:00:10.009     0:00:10.009     12,807 kbps     14,895 kbps     00:00:10.593    13,748 kbps     00:00:10.593    12,807 kbps     00:00:10.010    0 bytes         521,086 bytes   00:00:10.927    
3               0:00:20.019     0:00:10.009     14,936 kbps     16,281 kbps     00:00:20.603    15,923 kbps     00:00:20.603    14,936 kbps     00:00:20.020    0 bytes         609,553 bytes   00:00:20.937    
4               0:00:30.029     0:00:10.009     17,473 kbps     18,955 kbps     00:00:31.281    18,955 kbps     00:00:31.281    17,473 kbps     00:00:30.029    0 bytes         709,399 bytes   00:00:30.947    
5               0:00:40.039     0:00:10.009     14,345 kbps     15,644 kbps     00:00:40.623    15,245 kbps     00:00:40.623    14,345 kbps     00:00:40.039    0 bytes         578,912 bytes   00:00:40.957    
6               0:00:50.049     0:00:10.009     17,683 kbps     19,186 kbps     00:00:51.301    19,186 kbps     00:00:51.301    17,683 kbps     00:00:50.049    0 bytes         739,320 bytes   00:00:50.967    
7               0:01:00.059     0:00:10.010     15,070 kbps     16,571 kbps     00:01:00.643    16,192 kbps     00:01:00.643    15,070 kbps     00:01:00.060    0 bytes         619,463 bytes   00:01:00.977    
8               0:01:10.070     0:00:10.009     13,498 kbps     15,734 kbps     00:01:10.653    14,573 kbps     00:01:10.653    13,498 kbps     00:01:10.070    0 bytes         547,765 bytes   00:01:10.987    
9               0:01:20.080     0:00:10.009     12,130 kbps     14,334 kbps     00:01:20.330    12,860 kbps     00:01:20.330    12,130 kbps     00:01:20.080    0 bytes         493,297 bytes   00:01:30.006    
10              0:01:30.090     0:00:10.009     14,535 kbps     16,031 kbps     00:01:30.673    15,516 kbps     00:01:30.673    14,535 kbps     00:01:30.090    0 bytes         585,482 bytes   00:01:31.007    
11              0:01:40.100     0:00:10.009     10,882 kbps     11,280 kbps     00:01:40.350    11,275 kbps     00:01:40.350    10,882 kbps     00:01:40.100    0 bytes         470,259 bytes   00:01:50.026    
12              0:01:50.110     0:00:10.009     14,155 kbps     15,736 kbps     00:01:50.693    15,108 kbps     00:01:50.693    14,155 kbps     00:01:50.110    0 bytes         571,137 bytes   00:01:51.027    
13              0:02:00.120     0:00:10.009     14,110 kbps     15,834 kbps     00:02:00.703    15,257 kbps     00:02:00.703    14,110 kbps     00:02:00.120    0 bytes         587,921 bytes   00:02:01.037    
14              0:02:10.130     0:00:10.009     10,654 kbps     12,501 kbps     00:02:10.380    11,290 kbps     00:02:10.380    10,654 kbps     00:02:10.130    0 bytes         422,269 bytes   00:02:20.056    
15              0:02:20.139     0:00:10.009     12,002 kbps     13,300 kbps     00:02:20.723    12,654 kbps     00:02:20.723    12,002 kbps     00:02:20.140    0 bytes         515,794 bytes   00:02:30.066    
16              0:02:30.149     0:00:10.009     16,081 kbps     17,205 kbps     00:02:31.025    17,205 kbps     00:02:31.025    16,081 kbps     00:02:30.150    0 bytes         661,234 bytes   00:02:31.067    
17              0:02:40.159     0:00:10.009     16,018 kbps     17,226 kbps     00:02:41.035    17,226 kbps     00:02:41.035    16,018 kbps     00:02:40.160    0 bytes         651,902 bytes   00:02:41.077    
18              0:02:50.169     0:00:10.009     13,310 kbps     14,528 kbps     00:02:50.753    14,152 kbps     00:02:50.753    13,310 kbps     00:02:50.169    0 bytes         534,893 bytes   00:02:51.087    
19              0:03:00.179     0:00:10.010     16,047 kbps     17,268 kbps     00:03:01.055    17,268 kbps     00:03:01.055    16,047 kbps     00:03:00.180    0 bytes         657,796 bytes   00:03:01.097    
20              0:03:10.190     0:00:10.009     11,715 kbps     13,030 kbps     00:03:10.773    12,372 kbps     00:03:10.773    11,715 kbps     00:03:10.190    0 bytes         484,305 bytes   00:03:20.116    
21              0:03:20.200     0:00:10.009     15,138 kbps     16,666 kbps     00:03:20.783    16,254 kbps     00:03:20.783    15,138 kbps     00:03:20.200    0 bytes         621,218 bytes   00:03:21.117    
22              0:03:30.210     0:00:10.009     13,723 kbps     15,027 kbps     00:03:32.086    15,027 kbps     00:03:32.086    13,723 kbps     00:03:30.210    0 bytes         564,929 bytes   00:03:31.127    
23              0:03:40.220     0:00:10.009     13,985 kbps     15,611 kbps     00:03:40.803    15,013 kbps     00:03:40.803    13,985 kbps     00:03:40.220    0 bytes         566,948 bytes   00:03:41.137    
24              0:03:50.230     0:00:10.009     14,453 kbps     15,494 kbps     00:03:51.105    15,494 kbps     00:03:51.105    14,453 kbps     00:03:50.230    0 bytes         590,104 bytes   00:03:51.147    
25              0:04:00.240     0:00:10.009     12,435 kbps     13,671 kbps     00:04:00.823    13,177 kbps     00:04:00.823    12,435 kbps     00:04:00.240    0 bytes         500,720 bytes   00:04:01.157    
26              0:04:10.250     0:00:10.009     15,443 kbps     16,438 kbps     00:04:11.125    16,438 kbps     00:04:11.125    15,443 kbps     00:04:10.250    0 bytes         626,187 bytes   00:04:11.167    
27              0:04:20.260     0:00:10.009     17,516 kbps     19,055 kbps     00:04:21.511    19,055 kbps     00:04:21.511    17,516 kbps     00:04:20.260    0 bytes         717,403 bytes   00:04:21.177    
28              0:04:30.270     0:00:10.009     14,524 kbps     16,219 kbps     00:04:30.853    15,617 kbps     00:04:30.853    14,524 kbps     00:04:30.270    0 bytes         577,948 bytes   00:04:31.187    
29              0:04:40.279     0:00:10.009     13,576 kbps     15,307 kbps     00:04:40.863    14,684 kbps     00:04:40.863    13,576 kbps     00:04:40.279    0 bytes         555,775 bytes   00:04:41.197    
30              0:04:50.289     0:00:10.009     9,555 kbps      10,669 kbps     00:04:50.540    9,965 kbps      00:04:50.540    9,555 kbps      00:04:50.289    0 bytes         488,336 bytes   00:05:00.216    
31              0:05:00.299     0:00:10.009     12,379 kbps     13,695 kbps     00:05:00.550    13,094 kbps     00:05:00.550    12,379 kbps     00:05:00.299    0 bytes         511,291 bytes   00:05:01.217    
32              0:05:10.309     0:00:10.010     12,540 kbps     14,354 kbps     00:05:10.560    13,312 kbps     00:05:10.560    12,540 kbps     00:05:10.310    0 bytes         498,904 bytes   00:05:11.227    
33              0:05:20.320     0:00:10.009     14,927 kbps     16,574 kbps     00:05:20.903    15,894 kbps     00:05:20.903    14,927 kbps     00:05:20.320    0 bytes         599,128 bytes   00:05:21.237    
34              0:05:30.330     0:00:10.009     15,084 kbps     16,757 kbps     00:05:31.581    16,757 kbps     00:05:31.581    0 kbps          00:00:00.000    0 bytes         643,128 bytes   00:05:31.247    

STREAM DIAGNOSTICS:

File            PID             Type            Codec           Language                Seconds                 Bitrate                 Bytes           Packets         
----            ---             ----            -----           --------                --------------          --------------          -------------   -----           
00004.M2TS      4113 (0x1011)   0x24            HEVC                                    340.257                 13,995                  595,243,561     3,240,038       
00004.M2TS      4117 (0x1015)   0x24            HEVC                                    340.257                 58                      2,447,257       17,680          


<---- END FORUMS PASTE ---->

QUICK SUMMARY:

Disc Title: Ready Player One
Disc Label: Ready.Player.One.2018.COMPLETE.UHD.BLURAY-COASTER
Disc Size: 87,772,413,659 bytes
Protection: AACS2
Playlist: 00055.MPLS
Size: 627,187,968 bytes
Length: 0:05:40.340
Total Bitrate: 14.74 Mbps
Video: MPEG-H HEVC Video / 13977 kbps / 2160p / 23.976 fps / 16:9 / Main 10 @ Level 5.1 @ High / 10 bits / HDR10 / BT.2020
* Video: MPEG-H HEVC Video / 57 kbps / 1080p / 23.976 fps / 16:9 / Main 10 @ Level 5.1 @ High / 10 bits / Dolby Vision / BT.2020


********************
PLAYLIST: 00053.MPLS
********************

<--- BEGIN FORUMS PASTE --->

                                                                                                                Total   Video                                             
Title                                                           Codec   Length  Movie Size      Disc Size       Bitrate Bitrate Main Audio Track                          Secondary Audio Track
-----                                                           ------  ------- --------------  --------------  ------- ------- ------------------                        ---------------------
00053.MPLS                                                      HEVC    0:00:50 84,263,232      87,772,413,659  13.47   12.74                                             




DISC INFO:

Disc Title:     Ready Player One
Disc Label:     Ready.Player.One.2018.COMPLETE.UHD.BLURAY-COASTER
Disc Size:      87,772,413,659 bytes
Protection:     AACS2
Extras:         Ultra HD, BD-Java
BDInfo:         0.7.5.5

PLAYLIST REPORT:

Name:                   00053.MPLS
Length:                 0:00:50.049 (h:m:s.ms)
Size:                   84,263,232 bytes
Total Bitrate:          13.47 Mbps

(*) Indicates included stream hidden by this playlist.

VIDEO:

Codec                   Bitrate             Description     
-----                   -------             -----------     
MPEG-H HEVC Video       12741 kbps          2160p / 23.976 fps / 16:9 / Main 10 @ Level 5.1 @ High / 10 bits / HDR10 / BT.2020
* MPEG-H HEVC Video     57 kbps             1080p / 23.976 fps / 16:9 / Main 10 @ Level 5.1 @ High / 10 bits / Dolby Vision / BT.2020

FILES:

Name            Time In         Length          Size            Total Bitrate   
----            -------         ------          ----            -------------   
00010.M2TS      0:00:00.000     0:00:50.049     84,263,232      13,446          

CHAPTERS:

Number          Time In         Length          Avg Video Rate  Max 1-Sec Rate  Max 1-Sec Time  Max 5-Sec Rate  Max 5-Sec Time  Max 10Sec Rate  Max 10Sec Time  Avg Frame Size  Max Frame Size  Max Frame Time  
------          -------         ------          --------------  --------------  --------------  --------------  --------------  --------------  --------------  --------------  --------------  --------------  
1               0:00:00.000     0:00:10.009     12,669 kbps     14,097 kbps     00:00:00.583    13,577 kbps     00:00:00.583    12,656 kbps     00:00:00.000    0 bytes         515,647 bytes   00:00:00.917    
2               0:00:10.009     0:00:10.009     11,103 kbps     12,290 kbps     00:00:10.593    11,669 kbps     00:00:10.593    11,103 kbps     00:00:10.010    0 bytes         512,047 bytes   00:00:19.936    
3               0:00:20.019     0:00:10.009     14,744 kbps     16,350 kbps     00:00:20.603    15,866 kbps     00:00:20.603    14,744 kbps     00:00:20.020    0 bytes         624,573 bytes   00:00:20.937    
4               0:00:30.029     0:00:10.009     11,258 kbps     12,251 kbps     00:00:30.613    11,881 kbps     00:00:30.613    11,258 kbps     00:00:30.029    0 bytes         454,205 bytes   00:00:39.956    
5               0:00:40.039     0:00:10.009     14,036 kbps     16,256 kbps     00:00:40.623    15,547 kbps     00:00:40.623    0 kbps          00:00:00.000    0 bytes         582,757 bytes   00:00:40.957    

STREAM DIAGNOSTICS:

File            PID             Type            Codec           Language                Seconds                 Bitrate                 Bytes           Packets         
----            ---             ----            -----           --------                --------------          --------------          -------------   -----           
00010.M2TS      4113 (0x1011)   0x24            HEVC                                    49.967                  12,858                  80,306,008      437,131         
00010.M2TS      4117 (0x1015)   0x24            HEVC                                    49.967                  58                      359,895         2,600           


<---- END FORUMS PASTE ---->

QUICK SUMMARY:

Disc Title: Ready Player One
Disc Label: Ready.Player.One.2018.COMPLETE.UHD.BLURAY-COASTER
Disc Size: 87,772,413,659 bytes
Protection: AACS2
Playlist: 00053.MPLS
Size: 84,263,232 bytes
Length: 0:00:50.049
Total Bitrate: 13.47 Mbps
Video: MPEG-H HEVC Video / 12741 kbps / 2160p / 23.976 fps / 16:9 / Main 10 @ Level 5.1 @ High / 10 bits / HDR10 / BT.2020
* Video: MPEG-H HEVC Video / 57 kbps / 1080p / 23.976 fps / 16:9 / Main 10 @ Level 5.1 @ High / 10 bits / Dolby Vision / BT.2020


********************
PLAYLIST: 00054.MPLS
********************

<--- BEGIN FORUMS PASTE --->

                                                                                                                Total   Video                                             
Title                                                           Codec   Length  Movie Size      Disc Size       Bitrate Bitrate Main Audio Track                          Secondary Audio Track
-----                                                           ------  ------- --------------  --------------  ------- ------- ------------------                        ---------------------
00054.MPLS                                                      HEVC    0:00:30 53,659,968      87,772,413,659  14.30   13.51                                             




DISC INFO:

Disc Title:     Ready Player One
Disc Label:     Ready.Player.One.2018.COMPLETE.UHD.BLURAY-COASTER
Disc Size:      87,772,413,659 bytes
Protection:     AACS2
Extras:         Ultra HD, BD-Java
BDInfo:         0.7.5.5

PLAYLIST REPORT:

Name:                   00054.MPLS
Length:                 0:00:30.029 (h:m:s.ms)
Size:                   53,659,968 bytes
Total Bitrate:          14.30 Mbps

(*) Indicates included stream hidden by this playlist.

VIDEO:

Codec                   Bitrate             Description     
-----                   -------             -----------     
MPEG-H HEVC Video       13514 kbps          2160p / 23.976 fps / 16:9 / Main 10 @ Level 5.1 @ High / 10 bits / HDR10 / BT.2020
* MPEG-H HEVC Video     57 kbps             1080p / 23.976 fps / 16:9 / Main 10 @ Level 5.1 @ High / 10 bits / Dolby Vision / BT.2020

FILES:

Name            Time In         Length          Size            Total Bitrate   
----            -------         ------          ----            -------------   
00013.M2TS      0:00:00.000     0:00:30.029     53,659,968      14,255          

CHAPTERS:

Number          Time In         Length          Avg Video Rate  Max 1-Sec Rate  Max 1-Sec Time  Max 5-Sec Rate  Max 5-Sec Time  Max 10Sec Rate  Max 10Sec Time  Avg Frame Size  Max Frame Size  Max Frame Time  
------          -------         ------          --------------  --------------  --------------  --------------  --------------  --------------  --------------  --------------  --------------  --------------  
1               0:00:00.000     0:00:10.009     12,755 kbps     14,092 kbps     00:00:00.583    13,586 kbps     00:00:00.583    12,742 kbps     00:00:00.000    0 bytes         515,710 bytes   00:00:00.917    
2               0:00:10.009     0:00:10.009     13,019 kbps     14,451 kbps     00:00:10.593    13,798 kbps     00:00:10.593    13,019 kbps     00:00:10.010    0 bytes         531,565 bytes   00:00:10.927    
3               0:00:20.019     0:00:10.009     14,880 kbps     16,414 kbps     00:00:20.895    16,414 kbps     00:00:20.895    0 kbps          00:00:00.000    0 bytes         629,081 bytes   00:00:20.937    

STREAM DIAGNOSTICS:

File            PID             Type            Codec           Language                Seconds                 Bitrate                 Bytes           Packets         
----            ---             ----            -----           --------                --------------          --------------          -------------   -----           
00013.M2TS      4113 (0x1011)   0x24            HEVC                                    29.947                  13,713                  51,332,639      279,443         
00013.M2TS      4117 (0x1015)   0x24            HEVC                                    29.947                  58                      215,939         1,560           


<---- END FORUMS PASTE ---->

QUICK SUMMARY:

Disc Title: Ready Player One
Disc Label: Ready.Player.One.2018.COMPLETE.UHD.BLURAY-COASTER
Disc Size: 87,772,413,659 bytes
Protection: AACS2
Playlist: 00054.MPLS
Size: 53,659,968 bytes
Length: 0:00:30.029
Total Bitrate: 14.30 Mbps
Video: MPEG-H HEVC Video / 13514 kbps / 2160p / 23.976 fps / 16:9 / Main 10 @ Level 5.1 @ High / 10 bits / HDR10 / BT.2020
* Video: MPEG-H HEVC Video / 57 kbps / 1080p / 23.976 fps / 16:9 / Main 10 @ Level 5.1 @ High / 10 bits / Dolby Vision / BT.2020


********************
PLAYLIST: 00052.MPLS
********************

<--- BEGIN FORUMS PASTE --->

                                                                                                                Total   Video                                             
Title                                                           Codec   Length  Movie Size      Disc Size       Bitrate Bitrate Main Audio Track                          Secondary Audio Track
-----                                                           ------  ------- --------------  --------------  ------- ------- ------------------                        ---------------------
00052.MPLS                                                      HEVC    0:00:20 59,246,976      87,772,413,659  23.38   22.17                                             




DISC INFO:

Disc Title:     Ready Player One
Disc Label:     Ready.Player.One.2018.COMPLETE.UHD.BLURAY-COASTER
Disc Size:      87,772,413,659 bytes
Protection:     AACS2
Extras:         Ultra HD, BD-Java
BDInfo:         0.7.5.5

PLAYLIST REPORT:

Name:                   00052.MPLS
Length:                 0:00:20.270 (h:m:s.ms)
Size:                   59,246,976 bytes
Total Bitrate:          23.38 Mbps

(*) Indicates included stream hidden by this playlist.

VIDEO:

Codec                   Bitrate             Description     
-----                   -------             -----------     
MPEG-H HEVC Video       22174 kbps          2160p / 23.976 fps / 16:9 / Main 10 @ Level 5.1 @ High / 10 bits / HDR10 / BT.2020
* MPEG-H HEVC Video     57 kbps             1080p / 23.976 fps / 16:9 / Main 10 @ Level 5.1 @ High / 10 bits / Dolby Vision / BT.2020

FILES:

Name            Time In         Length          Size            Total Bitrate   
----            -------         ------          ----            -------------   
00000.M2TS      0:00:00.000     0:00:20.270     59,246,976      23,287          

CHAPTERS:

Number          Time In         Length          Avg Video Rate  Max 1-Sec Rate  Max 1-Sec Time  Max 5-Sec Rate  Max 5-Sec Time  Max 10Sec Rate  Max 10Sec Time  Avg Frame Size  Max Frame Size  Max Frame Time  
------          -------         ------          --------------  --------------  --------------  --------------  --------------  --------------  --------------  --------------  --------------  --------------  
1               0:00:00.000     0:00:20.270     22,265 kbps     29,605 kbps     00:00:10.593    27,841 kbps     00:00:10.593    25,868 kbps     00:00:09.509    0 bytes         935,003 bytes   00:00:10.927    

STREAM DIAGNOSTICS:

File            PID             Type            Codec           Language                Seconds                 Bitrate                 Bytes           Packets         
----            ---             ----            -----           --------                --------------          --------------          -------------   -----           
00000.M2TS      4113 (0x1011)   0x24            HEVC                                    20.187                  22,622                  57,082,300      310,487         
00000.M2TS      4117 (0x1015)   0x24            HEVC                                    20.187                  58                      146,763         1,056           


<---- END FORUMS PASTE ---->

QUICK SUMMARY:

Disc Title: Ready Player One
Disc Label: Ready.Player.One.2018.COMPLETE.UHD.BLURAY-COASTER
Disc Size: 87,772,413,659 bytes
Protection: AACS2
Playlist: 00052.MPLS
Size: 59,246,976 bytes
Length: 0:00:20.270
Total Bitrate: 23.38 Mbps
Video: MPEG-H HEVC Video / 22174 kbps / 2160p / 23.976 fps / 16:9 / Main 10 @ Level 5.1 @ High / 10 bits / HDR10 / BT.2020
* Video: MPEG-H HEVC Video / 57 kbps / 1080p / 23.976 fps / 16:9 / Main 10 @ Level 5.1 @ High / 10 bits / Dolby Vision / BT.2020

Другие фильмы
У данной публикации пока нет комментариев.
Будь первым, оставь своё мнение в комментариях!
Информация
Посетители, находящиеся в группе Гости, не могут оставлять комментарии к данной публикации.
Самый популярный релиз недели
Донаты
Мы в соц. сетях / RSS

Лучшие релизы месяца
Лучшие SD недели
Лучшие 720p недели
Лучшие 1080p недели
Лучшие 4K недели
Вы недавно смотрели
Реклама
Последние комментарии
...

Bonzo

14 июня 2024 14:52

...

rmzshka

13 июня 2024 17:48

...

rmzshka

13 июня 2024 12:24

...

LisNick

13 июня 2024 08:45

...

SkySpirit

8 июня 2024 19:54

Реклама