+1

В чужой шкуре / Обладатель / Possessor (2020) BDRip 720p от селезень | Uncut Version | iTunes

Информация о фильме
Название: В чужой шкуре / Обладатель
Оригинальное название: Possessor
Год выхода: 2020
Жанр: Фантастика, триллер, ужасы
Режиссер: Брэндон Кроненберг
В ролях: Андреа Райзборо, Дженнифер Джейсон Ли, Шон Бин, Таппенс Мидлтон, Кристофер Эбботт, Каньехтио Хорн, Россиф Сазерленд, Хеннеки Талбот, Кристофер Жако, Дераг Кэмпбелл


О фильме: Молодая девушка отправляется на свидание. Неожиданно в ее голове появляется некий голос, который дает ей указания. Она не может сопротивляться ему и довольно быстро теряет контроль над собой. В итоге девушка убивает человека, с которым назначила свидание. Она совершенно не понимала, что делает. В это время Тася Вос, являющаяся агентом секретной организации, просто раздавала указания, совершая работу чужими руками. Она использует новейшую технологию. В мозг человека имплантируют специальное устройство, с помощью которого она проникает в его разум. Ее клиентами являются богатые и очень влиятельные люди. Но так ли просто выполнять приказы, используя чужое тело? С какими последствиями предстоит столкнуться героине?

Страна: Великобритания, Канада
Студия: Rhombus Media, Rook Films, Particular Crowd
Продолжительность: 01:45:07
Перевод: Дублированный | iTunes

Качество: BDRip 720p
Видео: MPEG-4 AVC, 1280x720, 7500 Kbit/s, 23.976 fps
Аудио #01: 48 kHz, AC3, 5.1, 384 Kbps | iTunes | RUS |В чужой шкуре / Обладатель / Possessor (2020) BDRip 720p от селезень | Uncut Version | iTunes
Аудио #02: 48 kHz, AC3, 5.1, 640 Kbps | Оригинал | ENG |
Субтитры: Русские (Full), английские

Авторизуйтесь для получения доступа к скачиванию

Нет аккаунта? Регистрация открыта и займёт меньше минуты

Вход Регистрация

General
Unique ID : 293073049107092927235054717387698515225 (0xDC7BD0ED0834B0212EDF27737AFAAD19)
Complete name : E:\VideoFirst\Possessor.2020.BDRip.720p.seleZen.mkv
Format : Matroska
Format version : Version 4
File size : 6.22 GiB
Duration : 1 h 45 min
Overall bit rate : 8 470 kb/s
Movie name : Possessor 2020 from seleZen
Encoded date : UTC 2020-12-27 02:36:34
Writing application : mkvmerge v40.0.0 ('Old Town Road + Pony') 64-bit
Writing library : libebml v1.3.9 + libmatroska v1.5.2

Video
ID : 1
Format : AVC
Format/Info : Advanced Video Codec
Format profile : [email protected]
Format settings : CABAC / 9 Ref Frames
Format settings, CABAC : Yes
Format settings, Reference : 9 frames
Codec ID : V_MPEG4/ISO/AVC
Duration : 1 h 44 min
Bit rate : 7 500 kb/s
Width : 1 280 pixels
Height : 720 pixels
Display aspect ratio : 16:9
Frame rate mode : Constant
Frame rate : 23.976 (24000/1001) FPS
Color space : YUV
Chroma subsampling : 4:2:0
Bit depth : 8 bits
Scan type : Progressive
Bits/(Pixel*Frame) : 0.339
Stream size : 5.47 GiB (88%)
Title : iFT
Writing library : x264 core 161 r3018+53 ~ Encoded by Mocunaman in Portugal
Encoding settings : cabac=1 / ref=9 / deblock=1:-3:-3 / analyse=0x3:0x133 / me=umh / subme=11 / psy=1 / fade_compensate=0.00 / psy_rd=1.00:0.00 / mixed_ref=1 / me_range=32 / chroma_me=1 / trellis=2 / 8x8dct=1 / cqm=0 / deadzone=21,11 / fast_pskip=0 / chroma_qp_offset=-2 / threads=22 / lookahead_threads=3 / sliced_threads=0 / nr=0 / decimate=0 / interlaced=0 / bluray_compat=0 / constrained_intra=0 / fgo=0 / bframes=9 / b_pyramid=2 / b_adapt=2 / b_bias=0 / direct=3 / weightb=1 / open_gop=0 / weightp=2 / keyint=250 / keyint_min=23 / scenecut=40 / intra_refresh=0 / rc=2pass / mbtree=0 / bitrate=7500 / ratetol=1.0 / qcomp=0.65 / qpmin=0:0:0 / qpmax=69:69:69 / qpstep=4 / cplxblur=20.0 / qblur=0.5 / ip_ratio=1.30 / pb_ratio=1.20 / aq=3:0.85 / aq-sensitivity=10.00 / aq-factor=1.00:1.00:1.00 / aq2=0 / aq3=0 / zones=0,504,b=1.3/5485,12037,b=1.5/22021,30301,b=1.4/36013,40702,b=1.4/41110,43366,b=1.5/45611,45856,b=1.5/56944,62320,b=1.3/66798,72342,b=1.5/79110,86166,b=1.3/93380,96140,b=1.4/105956,117115,b=1.6/135699,139965,b=1.4
Language : English
Default : Yes
Forced : No
Color range : Limited
Matrix coefficients : BT.709

Audio #1
ID : 2
Format : AC-3
Format/Info : Audio Coding 3
Commercial name : Dolby Digital
Codec ID : A_AC3
Duration : 1 h 45 min
Bit rate mode : Constant
Bit rate : 384 kb/s
Channel(s) : 6 channels
Channel layout : L R C LFE Ls Rs
Sampling rate : 48.0 kHz
Frame rate : 31.250 FPS (1536 SPF)
Compression mode : Lossy
Stream size : 289 MiB (5%)
Title : iTunes
Language : Russian
Service kind : Complete Main
Default : Yes
Forced : Yes

Audio #2
ID : 3
Format : AC-3
Format/Info : Audio Coding 3
Commercial name : Dolby Digital
Codec ID : A_AC3
Duration : 1 h 45 min
Bit rate mode : Constant
Bit rate : 640 kb/s
Channel(s) : 6 channels
Channel layout : L R C LFE Ls Rs
Sampling rate : 48.0 kHz
Frame rate : 31.250 FPS (1536 SPF)
Compression mode : Lossy
Stream size : 481 MiB (8%)
Title : Original
Language : English
Service kind : Complete Main
Default : No
Forced : No

Text #1
ID : 4
Format : UTF-8
Codec ID : S_TEXT/UTF8
Codec ID/Info : UTF-8 Plain Text
Duration : 1 h 37 min
Bit rate : 53 b/s
Count of elements : 724
Stream size : 38.1 KiB (0%)
Title : Full
Language : Russian
Default : No
Forced : No

Text #2
ID : 5
Format : UTF-8
Codec ID : S_TEXT/UTF8
Codec ID/Info : UTF-8 Plain Text
Duration : 1 h 33 min
Bit rate : 31 b/s
Count of elements : 714
Stream size : 21.7 KiB (0%)
Title : Full
Language : English
Default : No
Forced : No

Text #3
ID : 6
Format : UTF-8
Codec ID : S_TEXT/UTF8
Codec ID/Info : UTF-8 Plain Text
Duration : 1 h 35 min
Bit rate : 35 b/s
Count of elements : 863
Stream size : 24.7 KiB (0%)
Title : SDH
Language : English
Default : No
Forced : No

Menu
00:00:00.000 : en:Chapter 01
00:07:47.382 : en:Chapter 02
00:15:07.864 : en:Chapter 03
00:22:31.391 : en:Chapter 04
00:31:58.208 : en:Chapter 05
00:41:37.370 : en:Chapter 06
00:50:17.306 : en:Chapter 07
01:06:06.963 : en:Chapter 08
01:15:38.534 : en:Chapter 09
01:23:37.637 : en:Chapter 10
01:37:13.578 : en:Chapter 11

Другие фильмы
У данной публикации пока нет комментариев.
Будь первым, оставь своё мнение в комментариях!
Информация
Посетители, находящиеся в группе Гости, не могут оставлять комментарии к данной публикации.
Самый популярный релиз недели
Донаты
Мы в соц. сетях / RSS

Лучшие релизы месяца
Лучшие SD недели
Лучшие 720p недели
Лучшие 1080p недели
Лучшие 4K недели
Вы недавно смотрели
Реклама
Последние комментарии
...

Tony1984

Вчера, 14:36

...

bolonka123

19 апреля 2024 10:05

...

Sergunka

17 апреля 2024 23:31

...

-=DoMiNo=-

17 апреля 2024 13:52

...

bolonka123

17 апреля 2024 11:43

Реклама