+6

Внезапная смерть 2 / Вас приветствует внезапная смерть / Welcome to Sudden Death (2020) WEB-DL 1080p от селезень | iTunes

Информация о фильме
Название: Внезапная смерть 2 / Вас приветствует внезапная смерть
Оригинальное название: Welcome to Sudden Death
Год выхода: 2020
Жанр: Боевик, триллер, драма
Режиссер: Даллас Джексон
В ролях: Майкл Джей Уайт, Майкл Эклунд, Гари Оуэн, Джиллиан Уайт, Стефани Сай, Кристен Харрис, Энтони Грант, Сабрин Рок, Маррезе Крамп, Дэннис Скаллард


О фильме: Во время проведения решающего баскетбольного матча гигантский стадион оказывается в заложниках у группы террористов, возглавляемых бывшим сотрудником службы безопасности. Преступники угрожают взорвать стадион к концу игры, если огромная сумма денег не будет переведена на указанный ими счет. Медлить нельзя, и главный герой начинает отчаянный поединок с террористами.

Страна: США
Студия: Universal 1440 Entertainment
Продолжительность: 01:20:27
Перевод: Дублированный | iTunes

Качество: WEB-DL 1080p
Видео: MPEG-4 AVC, 1920x1080, 6490 Kbit/s, 23.976 fps
Аудио #01: 48 kHz, AC3, 5.1, 384 Kbps | iTunes | RUS |Внезапная смерть 2 / Вас приветствует внезапная смерть / Welcome to Sudden Death (2020) WEB-DL 1080p от селезень | iTunes
Аудио #02: 48 kHz, E-AC3, 5.1, 640 Kbps | Оригинал | ENG |
Субтитры: Английские

Авторизуйтесь для получения доступа к скачиванию

Нет аккаунта? Регистрация открыта и займёт меньше минуты

Вход Регистрация

General
Unique ID : 218562808271910126234884114518228164436 (0xA46DAA6C7F148FF2E3B1F92CD1E95F54)
Complete name : E:\VideoFirst\Welcome.to.Sudden.Death.2020.WEB-DL.1080p.seleZen.mkv
Format : Matroska
Format version : Version 4
File size : 4.16 GiB
Duration : 1 h 20 min
Overall bit rate mode : Variable
Overall bit rate : 7 409 kb/s
Movie name : Welcome to Sudden Death 2020 from seleZen
Encoded date : UTC 2020-12-28 13:59:22
Writing application : mkvmerge v40.0.0 ('Old Town Road + Pony') 64-bit
Writing library : libebml v1.3.9 + libmatroska v1.5.2

Video
ID : 1
Format : AVC
Format/Info : Advanced Video Codec
Format profile : Main@L4
Format settings : CABAC / 3 Ref Frames
Format settings, CABAC : Yes
Format settings, Reference : 3 frames
Codec ID : V_MPEG4/ISO/AVC
Duration : 1 h 20 min
Bit rate mode : Variable
Bit rate : 6 490 kb/s
Maximum bit rate : 9 735 kb/s
Width : 1 920 pixels
Height : 1 080 pixels
Display aspect ratio : 16:9
Frame rate mode : Constant
Frame rate : 23.976 (24000/1001) FPS
Color space : YUV
Chroma subsampling : 4:2:0
Bit depth : 8 bits
Scan type : Progressive
Bits/(Pixel*Frame) : 0.131
Stream size : 3.59 GiB (86%)
Writing library : x264 core 148 r2722 1b0121b
Encoding settings : cabac=1 / ref=3 / deblock=1:0:0 / analyse=0x1:0x111 / me=umh / subme=10 / psy=1 / psy_rd=1.00:0.00 / mixed_ref=1 / me_range=24 / chroma_me=1 / trellis=2 / 8x8dct=0 / cqm=0 / deadzone=21,11 / fast_pskip=1 / chroma_qp_offset=-2 / threads=8 / lookahead_threads=1 / sliced_threads=0 / nr=0 / decimate=1 / interlaced=0 / bluray_compat=0 / stitchable=1 / constrained_intra=0 / bframes=2 / b_pyramid=0 / b_adapt=2 / b_bias=0 / direct=3 / weightb=1 / open_gop=0 / weightp=2 / keyint=250 / keyint_min=23 / scenecut=0 / intra_refresh=0 / rc_lookahead=48 / rc=2pass / mbtree=1 / bitrate=6490 / ratetol=1.0 / qcomp=0.50 / qpmin=6 / qpmax=51 / qpstep=4 / cplxblur=20.0 / qblur=0.5 / vbv_maxrate=9735 / vbv_bufsize=12980 / nal_hrd=vbr / filler=0 / ip_ratio=1.40 / aq=1:1.00
Language : English
Default : Yes
Forced : No

Audio #1
ID : 2
Format : AC-3
Format/Info : Audio Coding 3
Commercial name : Dolby Digital
Codec ID : A_AC3
Duration : 1 h 20 min
Bit rate mode : Constant
Bit rate : 384 kb/s
Channel(s) : 6 channels
Channel layout : L R C LFE Ls Rs
Sampling rate : 48.0 kHz
Frame rate : 31.250 FPS (1536 SPF)
Compression mode : Lossy
Stream size : 221 MiB (5%)
Title : iTunes
Language : Russian
Service kind : Complete Main
Default : Yes
Forced : Yes

Audio #2
ID : 3
Format : E-AC-3
Format/Info : Enhanced AC-3
Commercial name : Dolby Digital Plus
Codec ID : A_EAC3
Duration : 1 h 20 min
Bit rate mode : Constant
Bit rate : 640 kb/s
Channel(s) : 6 channels
Channel layout : L R C LFE Ls Rs
Sampling rate : 48.0 kHz
Frame rate : 31.250 FPS (1536 SPF)
Compression mode : Lossy
Stream size : 368 MiB (9%)
Title : Original
Language : English
Service kind : Complete Main
Default : No
Forced : No

Text
ID : 4
Format : UTF-8
Codec ID : S_TEXT/UTF8
Codec ID/Info : UTF-8 Plain Text
Duration : 1 h 19 min
Bit rate : 85 b/s
Count of elements : 1554
Stream size : 50.2 KiB (0%)
Title : SDH
Language : English
Default : No
Forced : No

Menu
00:00:00.000 : en:1
00:03:15.000 : en:2
00:06:49.000 : en:3
00:09:21.000 : en:4
00:12:37.000 : en:5
00:16:10.000 : en:6
00:21:20.000 : en:7
00:24:46.000 : en:8
00:28:51.000 : en:9
00:33:31.000 : en:10
00:37:07.000 : en:11
00:42:04.000 : en:12
00:46:03.000 : en:13
00:49:10.000 : en:14
00:51:49.000 : en:15
00:56:29.000 : en:16
01:00:46.000 : en:17
01:04:53.000 : en:18
01:13:01.000 : en:19
01:14:35.000 : en:20

Другие фильмы
Комментарии:

...
zaxz 31 декабря 2020 19:38
0

Фильм очень слабый... Не стоит потраченного времени.

...
hannibal 28 декабря 2020 18:33
0

Слабоват фильм  sunglasses 

Информация
Посетители, находящиеся в группе Гости, не могут оставлять комментарии к данной публикации.
Самый популярный релиз недели
Донаты
Мы в соц. сетях / RSS

Лучшие релизы месяца
Лучшие SD недели
Лучшие 720p недели
Лучшие 1080p недели
Лучшие 4K недели
Вы недавно смотрели
Реклама
Последние комментарии
...

Tony1984

Вчера, 14:36

...

bolonka123

19 апреля 2024 10:05

...

Sergunka

17 апреля 2024 23:31

...

-=DoMiNo=-

17 апреля 2024 13:52

...

bolonka123

17 апреля 2024 11:43

Реклама