+1

Человеческий голос / The Human Voice (2020) WEB-DL 1080p от селезень | iTunes

Информация о фильме
Название: Человеческий голос
Оригинальное название: The Human Voice
Год выхода: 2020
Жанр: Драма, короткометражка
Режиссер: Педро Альмодовар
В ролях: Тильда Суинтон, Агустин Альмодовар, Пабло Альмодовар, Мигель Альмодовар


О фильме: Женщина замерла в надежде на возвращение бывшего возлюбленного, так и не забравшего свои чемоданы. Она делит одиночество с голосом в телефонной трубке и преданным псом, не понимающим, оставил ли его хозяин. Два живых существа, застрявших в неопределенности мучительного ожидания.

Страна: Испания
Студия: El Deseo S.A., FilmNation Entertainment
Продолжительность: 01:17:36
Перевод: Дублированный | iTunes

Качество: WEB-DL 1080p
Видео: MPEG-4 AVC, 1920x1038, 5196 Kbit/s, 24.000 fps
Аудио: 48 kHz, AAC, 2.0, 125 Kbps | iTunes | RUS |Человеческий голос / The Human Voice (2020) WEB-DL 1080p от селезень | iTunes
Субтитры: Отсутсвуют

Авторизуйтесь для получения доступа к скачиванию

Нет аккаунта? Регистрация открыта и займёт меньше минуты

Вход Регистрация

General
Unique ID : 270694159352547200013135607988534303121 (0xCBA5CC795BB6E0D29DF9586C715ED991)
Complete name : F:\Video\The.Human.Voice.2020.WEB-DL.1080p.seleZen.mkv
Format : Matroska
Format version : Version 4
File size : 2.89 GiB
Duration : 1 h 17 min
Overall bit rate : 5 323 kb/s
Movie name : The Human Voice 2020 from seleZen
Encoded date : UTC 2021-03-20 07:50:31
Writing application : mkvmerge v55.0.0 ('Waiting For Space') 64-bit
Writing library : libebml v1.4.2 + libmatroska v1.6.4

Video
ID : 1
Format : AVC
Format/Info : Advanced Video Codec
Format profile : High@L4
Format settings : CABAC / 4 Ref Frames
Format settings, CABAC : Yes
Format settings, Reference : 4 frames
Codec ID : V_MPEG4/ISO/AVC
Duration : 1 h 17 min
Bit rate : 5 196 kb/s
Width : 1 920 pixels
Height : 1 038 pixels
Display aspect ratio : 1.85:1
Frame rate mode : Constant
Frame rate : 24.000 FPS
Color space : YUV
Chroma subsampling : 4:2:0
Bit depth : 8 bits
Scan type : Progressive
Bits/(Pixel*Frame) : 0.109
Stream size : 2.82 GiB (98%)
Language : English
Default : Yes
Forced : No
Color range : Limited
Color primaries : BT.709
Transfer characteristics : BT.709
Matrix coefficients : BT.709

Audio
ID : 2
Format : AAC LC
Format/Info : Advanced Audio Codec Low Complexity
Codec ID : A_AAC-2
Duration : 1 h 17 min
Bit rate : 125 kb/s
Channel(s) : 2 channels
Channel layout : L R
Sampling rate : 48.0 kHz
Frame rate : 46.875 FPS (1024 SPF)
Compression mode : Lossy
Stream size : 69.2 MiB (2%)
Title : iTunes
Language : Russian
Default : Yes
Forced : Yes

Menu
00:00:00.000 : en:Глава 1
00:02:27.125 : en:Глава 2
00:08:15.291 : en:Глава 3
00:11:15.666 : en:Глава 4
00:20:21.457 : en:Глава 5
00:24:28.832 : en:Глава 6
00:30:05.957 : en:Глава 7
00:36:27.915 : en:Глава 8
00:42:22.331 : en:Глава 9
00:49:05.914 : en:Глава 10
00:55:21.247 : en:Глава 11
01:02:27.288 : en:Глава 12
01:09:29.246 : en:Глава 13

Другие фильмы
У данной публикации пока нет комментариев.
Будь первым, оставь своё мнение в комментариях!
Информация
Посетители, находящиеся в группе Гости, не могут оставлять комментарии к данной публикации.
Самый популярный релиз недели
Донаты
Мы в соц. сетях / RSS

Лучшие релизы месяца
Лучшие SD недели
Лучшие 720p недели
Лучшие 1080p недели
Лучшие 4K недели
Вы недавно смотрели
Реклама
Последние комментарии
...

Tony1984

Вчера, 14:36

...

bolonka123

19 апреля 2024 10:05

...

Sergunka

17 апреля 2024 23:31

...

-=DoMiNo=-

17 апреля 2024 13:52

...

bolonka123

17 апреля 2024 11:43

Реклама