+21

Затерянный город / The Lost City (2022) BDRip 1080p от селезень | D, P

Информация о фильме
Название: Затерянный город
Оригинальное название: The Lost City
Год выхода: 2022
Жанр: комедия, приключения, мелодрама, боевик
Режиссер: Аарон Ни, Адам Ни
В ролях: Сандра Буллок, Ченнинг Татум, Дэниэл Рэдклифф, Да'Вин Джой Рэндольф, Оскар Нуньес, Патти Харрисон, Брэд Питт, Боуэн Янг, Стивен Лэнг, Джоан Прингл

О фильме: Лоретта Сейдж пишет популярные любовно-приключенческие романы. События в них непременно разворачиваются в экзотических местах, а главный герой - красавчик и мечта героинь Дэш, которого в жизни воплощает модель Алан. Во время промотура нового бестселлера Лоретту похищает эксцентричный миллиардер, уверенный, что она сможет привести его к сокровищам древнего затерянного города из ее последней книги. Алан решает доказать, что может быть героем в реальной жизни, а не только на страницах книг, и отправляется Лоретте на выручку.

Страна: США
Студия: 3dot productions, 5150 Action, Exhibit A, Fortis Films
Продолжительность: 01:51:45
Перевод(ы):
#1: Дублированный | Лицензия
#2: Профессиональный многоголосый | Jaskier
#3: Профессиональный многоголосый | TVShows


Качество: BDRip 1080p
Видео: MPEG-4 AVC, 1920x804, 8489 Kbit/s, 23.976 fps
Аудио #01: 48 kHz, AC3, 5.1, 384 Kbps | Дублированный | Лицензия | RUS |Затерянный город / The Lost City (2022) BDRip 1080p от селезень | D, P
Аудио #02: 48 kHz, AC3, 5.1, 448 Kbps | Профессиональный многоголосый | Jaskier | RUS |
Аудио #03: 48 kHz, AC3, 2.0, 192 Kbps | Профессиональный многоголосый | TVShows | RUS |
Аудио #04: 48 kHz, AC3, 5.1, 384 Kbps | Профессиональный многоголосый | HDRezka Studio | UKR |
Аудио #05: 48 kHz, AC3, 5.1, 640 Kbps | Оригинал | ENG |
Субтитры: Русские (Forced, Full), украинские (Forced, Full), английские

Затерянный город / The Lost City (2022) BDRip 1080p от селезень | D, P

Авторизуйтесь для получения доступа к скачиванию

Нет аккаунта? Регистрация открыта и займёт меньше минуты

Вход Регистрация

General
Unique ID : 4845267594585312645255088473214011232 (0x3A52A22E42869F3853A5553732BC760)
Complete name : D:\Video1\The.Lost.City.2022.BDRip.1080p.seleZen.mkv
Format : Matroska
Format version : Version 4
File size : 8.23 GiB
Duration : 1 h 51 min
Overall bit rate : 10.5 Mb/s
Movie name : The Lost City 2022 from seleZen
Encoded date : UTC 2022-07-10 09:41:43
Writing application : mkvmerge v59.0.0 ('Shining Star') 64-bit
Writing library : libebml v1.4.2 + libmatroska v1.6.4

Video
ID : 1
Format : AVC
Format/Info : Advanced Video Codec
Format profile : [email protected]
Format settings : CABAC / 5 Ref Frames
Format settings, CABAC : Yes
Format settings, Reference : 5 frames
Codec ID : V_MPEG4/ISO/AVC
Duration : 1 h 51 min
Bit rate : 8 489 kb/s
Width : 1 920 pixels
Height : 804 pixels
Display aspect ratio : 2.40:1
Frame rate mode : Constant
Frame rate : 23.976 (24000/1001) FPS
Color space : YUV
Chroma subsampling : 4:2:0
Bit depth : 8 bits
Scan type : Progressive
Bits/(Pixel*Frame) : 0.229
Stream size : 6.63 GiB (81%)
Title : MTeam
Writing library : x264 core 157 r2938 2b00a84 [email protected] Mod
Encoding settings : cabac=1 / ref=5 / deblock=1:-3:-3 / analyse=0x3:0x133 / me=umh / subme=10 / psy=1 / psy_rd=1.05:0.00 / mixed_ref=1 / me_range=32 / chroma_me=1 / trellis=2 / 8x8dct=1 / cqm=0 / deadzone=21,11 / fast_pskip=0 / chroma_qp_offset=-2 / threads=12 / lookahead_threads=2 / sliced_threads=0 / nr=0 / decimate=0 / interlaced=0 / bluray_compat=0 / constrained_intra=0 / bframes=8 / b_pyramid=2 / b_adapt=2 / b_bias=0 / direct=3 / weightb=1 / open_gop=0 / weightp=2 / keyint=250 / keyint_min=24 / scenecut=40 / intra_refresh=0 / rc_lookahead=250 / rc=crf / mbtree=0 / crf=16.8 / qcomp=0.60 / qpmin=0 / qpmax=69 / qpstep=4 / vbv_maxrate=62500 / vbv_bufsize=78125 / crf_max=0.0 / nal_hrd=none / filler=0 / ip_ratio=1.30 / pb_ratio=1.20 / aq=3:0.80
Language : English
Default : Yes
Forced : No
Color range : Limited
Color primaries : BT.709
Matrix coefficients : BT.709

Audio #1
ID : 2
Format : AC-3
Format/Info : Audio Coding 3
Commercial name : Dolby Digital
Codec ID : A_AC3
Duration : 1 h 51 min
Bit rate mode : Constant
Bit rate : 384 kb/s
Channel(s) : 6 channels
Channel layout : L R C LFE Ls Rs
Sampling rate : 48.0 kHz
Frame rate : 31.250 FPS (1536 SPF)
Compression mode : Lossy
Stream size : 307 MiB (4%)
Title : Dub
Language : Russian
Service kind : Complete Main
Default : Yes
Forced : Yes

Audio #2
ID : 3
Format : AC-3
Format/Info : Audio Coding 3
Commercial name : Dolby Digital
Codec ID : A_AC3
Duration : 1 h 51 min
Bit rate mode : Constant
Bit rate : 448 kb/s
Channel(s) : 6 channels
Channel layout : L R C LFE Ls Rs
Sampling rate : 48.0 kHz
Frame rate : 31.250 FPS (1536 SPF)
Compression mode : Lossy
Stream size : 358 MiB (4%)
Title : MVO [Jakier]
Language : Russian
Service kind : Complete Main
Default : No
Forced : No

Audio #3
ID : 4
Format : AC-3
Format/Info : Audio Coding 3
Commercial name : Dolby Digital
Codec ID : A_AC3
Duration : 1 h 51 min
Bit rate mode : Constant
Bit rate : 192 kb/s
Channel(s) : 2 channels
Channel layout : L R
Sampling rate : 48.0 kHz
Frame rate : 31.250 FPS (1536 SPF)
Compression mode : Lossy
Stream size : 153 MiB (2%)
Title : MVO [TVShows]
Language : Russian
Service kind : Complete Main
Default : No
Forced : No

Audio #4
ID : 5
Format : AC-3
Format/Info : Audio Coding 3
Commercial name : Dolby Digital
Codec ID : A_AC3
Duration : 1 h 51 min
Bit rate mode : Constant
Bit rate : 384 kb/s
Channel(s) : 6 channels
Channel layout : L R C LFE Ls Rs
Sampling rate : 48.0 kHz
Frame rate : 31.250 FPS (1536 SPF)
Compression mode : Lossy
Stream size : 307 MiB (4%)
Title : MVO [HDRezka Studio]
Language : Ukrainian
Service kind : Complete Main
Default : No
Forced : No

Audio #5
ID : 6
Format : AC-3
Format/Info : Audio Coding 3
Commercial name : Dolby Digital
Codec ID : A_AC3
Duration : 1 h 51 min
Bit rate mode : Constant
Bit rate : 640 kb/s
Channel(s) : 6 channels
Channel layout : L R C LFE Ls Rs
Sampling rate : 48.0 kHz
Frame rate : 31.250 FPS (1536 SPF)
Compression mode : Lossy
Stream size : 512 MiB (6%)
Title : Original
Language : English
Service kind : Complete Main
Default : No
Forced : No

Text #1
ID : 7
Format : UTF-8
Codec ID : S_TEXT/UTF8
Codec ID/Info : UTF-8 Plain Text
Duration : 1 h 40 min
Bit rate : 0 b/s
Frame rate : 0.001 FPS
Count of elements : 4
Stream size : 137 Bytes (0%)
Title : Forced
Language : Russian
Default : Yes
Forced : Yes

Text #2
ID : 8
Format : UTF-8
Codec ID : S_TEXT/UTF8
Codec ID/Info : UTF-8 Plain Text
Duration : 1 h 51 min
Bit rate : 101 b/s
Frame rate : 0.243 FPS
Count of elements : 1623
Stream size : 82.3 KiB (0%)
Title : Full
Language : Russian
Default : No
Forced : No

Text #3
ID : 9
Format : UTF-8
Codec ID : S_TEXT/UTF8
Codec ID/Info : UTF-8 Plain Text
Duration : 1 h 38 min
Bit rate : 0 b/s
Frame rate : 0.001 FPS
Count of elements : 8
Stream size : 376 Bytes (0%)
Title : Forced
Language : Ukrainian
Default : No
Forced : No

Text #4
ID : 10
Format : UTF-8
Codec ID : S_TEXT/UTF8
Codec ID/Info : UTF-8 Plain Text
Duration : 1 h 51 min
Bit rate : 101 b/s
Frame rate : 0.249 FPS
Count of elements : 1660
Stream size : 82.3 KiB (0%)
Title : Full
Language : Ukrainian
Default : No
Forced : No

Text #5
ID : 11
Format : UTF-8
Codec ID : S_TEXT/UTF8
Codec ID/Info : UTF-8 Plain Text
Duration : 1 h 45 min
Bit rate : 78 b/s
Frame rate : 0.273 FPS
Count of elements : 1720
Stream size : 60.2 KiB (0%)
Title : Full
Language : English
Default : No
Forced : No

Text #6
ID : 12
Format : UTF-8
Codec ID : S_TEXT/UTF8
Codec ID/Info : UTF-8 Plain Text
Duration : 1 h 45 min
Bit rate : 87 b/s
Frame rate : 0.302 FPS
Count of elements : 1908
Stream size : 67.7 KiB (0%)
Title : SDH
Language : English
Default : No
Forced : No

Menu
00:00:00.000 : Chapter 01
00:11:26.728 : Chapter 02
00:19:31.670 : Chapter 03
00:26:55.572 : Chapter 04
00:33:43.313 : Chapter 05
00:41:30.029 : Chapter 06
00:50:29.944 : Chapter 07
01:02:19.194 : Chapter 08
01:13:31.073 : Chapter 09
01:23:19.286 : Chapter 10
01:34:35.253 : Chapter 11
01:44:53.621 : Chapter 12

Другие фильмы
У данной публикации пока нет комментариев.
Будь первым, оставь своё мнение в комментариях!
Информация
Посетители, находящиеся в группе Гости, не могут оставлять комментарии к данной публикации.
Самый популярный релиз недели
WEB-DL 1080p 8.93 Gb ...

Кино копилка
...
Какую тему вы используете?

Реклама
Последние комментарии
...

Desol

29 ноября 2022 00:09

...

quatro78

28 ноября 2022 12:46

...

ovdm86

26 ноября 2022 21:37

...

KDA

24 ноября 2022 17:01

...

pavklim

22 ноября 2022 19:25

Реклама