+7

Я — Златан / Jag är Zlatan / I Am Zlatan (2021) BDRip-AVC от DoMiNo & селезень | D

Информация о фильме
Название: Я — Златан
Оригинальное название: Jag är Zlatan / I Am Zlatan
Год выхода: 2021
Жанр: Драма, биография, спорт
Режиссер: Йенс Сьёгрен
В ролях: Хокан Бенгтссон, Дэвид С. Линдгрен, Эммануэль Аита, Гранит Рушити, Дидрик Гиллстедт, Линда Хазири, Седомир Глишович, Доминик Андерссон Байрактати, Мерима Диздаревич, Сельма Месанович

О фильме:
Он вырос в одном из самых криминальных районов и с самых низов попал на вершину мирового футбола. Благодаря упорству, удаче и прирожденному таланту ему удалось завладеть сердцами миллионов. Его имя скандирует толпа, и при виде него ликуют стадионы. Имя легенды — Златан Ибрагимович, и это его история.

Страна: Швеция, Дания, Нидерланды
Студия: B-Reel Films, Keplerfilm, Stiftelsen Svenska Filminstitutet, Stockholm
Продолжительность: 01:43:05
Перевод: Дублированный | Кипарис | Кинопоиск HD

Файл
Формат: Matroska
Качество: BDRip-AVC
Видео: 1032x430 at 24.000 fps, [email protected], ~2314 kbps
Аудио 1: AC3, 6 ch, ~448 kbps - | Русский | Я — Златан / Jag är Zlatan / I Am Zlatan (2021) BDRip-AVC от DoMiNo & селезень | D
Аудио 2: AC3, 6 ch, ~384 kbps - | Швецкий |
Субтитры: Русские (Full), Английские (Full), Итальянские (форсированные (хардсаб))

Я — Златан / Jag är Zlatan / I Am Zlatan (2021) BDRip-AVC от DoMiNo & селезень | D

Авторизуйтесь для получения доступа к скачиванию

Нет аккаунта? Регистрация открыта и займёт меньше минуты

Вход Регистрация

x264 [info]: frame I: 1057 Avg QP: 15.26 size: 59065
x264 [info]: frame P: 32815 Avg QP: 17.29 size: 22870
x264 [info]: frame B: 114591 Avg QP: 19.02 size: 8519

General
Unique ID: 21801209514429848638882151624897413721 (0×1066C29DF59EFA2C182C02C01A434259)
Complete name: S: Jag.aer.Zlatan.2021.DUB.BDRip.x264.seleZen.mkv
Format: Matroska
Format version: Version 4
File size: 2.26 GiB
Duration: 1 h 43 min
Overall bit rate: 3 145 kb/s
Frame rate: 24.000 FPS
Movie name: Jag.aer.Zlatan.2021.DUB.BDRip.x264.seleZen
Encoded date: 03.04.2024 18:33:05 UTC
Writing application: mkvmerge v83.0 ('Circle Of Friends') 64-bit
Writing library: libebml v1.4.5 + libmatroska v1.7.1
Cover: Yes
Attachments: cover.jpg / small_cover.jpg

Video
ID: 1
Format: AVC
Format/Info: Advanced Video Codec
Format profile: [email protected]
Format settings: CABAC / 12 Ref Frames
Format settings, CABAC: Yes
Format settings, Reference: 12 frames
Codec ID: V_MPEG4/ISO/AVC
Duration: 1 h 43 min
Bit rate: 2 314 kb/s
Width: 1 032 pixels
Height: 430 pixels
Display aspect ratio: 2.40:1
Frame rate mode: Constant
Frame rate: 24.000 FPS
Color space: YUV
Chroma subsampling: 4:2:0
Bit depth: 8 bits
Scan type: Progressive
Bits/(Pixel*Frame): 0.217
Stream size: 1.67 GiB (74%)
Title: -=DoMiNo=-
Writing library: x264 core 164 r3095 baee400
Encoding settings: cabac=1 / ref=12 / deblock=1:-2:-2 / analyse=0×3:0×133 / me=umh / subme=11 / psy=1 / psy_rd=1.02:0.03 / mixed_ref=1 / me_range=32 / chroma_me=1 / trellis=2 / 8×8dct=1 / cqm=0 / deadzone=21,11 / fast_pskip=0 / chroma_qp_offset=-3 / threads=17 / lookahead_threads=3 / sliced_threads=0 / nr=0 / decimate=1 / interlaced=0 / bluray_compat=0 / constrained_intra=0 / bframes=10 / b_pyramid=2 / b_adapt=2 / b_bias=0 / direct=1 / weightb=1 / open_gop=0 / weightp=2 / keyint=250 / keyint_min=24 / scenecut=40 / intra_refresh=0 / rc_lookahead=60 / rc=crf / mbtree=0 / crf=18.0 / qcomp=0.65 / qpmin=0 / qpmax=69 / qpstep=4 / vbv_maxrate=50000 / vbv_bufsize=62500 / crf_max=0.0 / nal_hrd=none / filler=0 / ip_ratio=1.35 / pb_ratio=1.25 / aq=3:0.80
Language: Swedish
Default: Yes
Forced: No
Color range: Limited
Color primaries: BT.709
Transfer characteristics: BT.709
Matrix coefficients: BT.709

Audio #1
ID: 2
Format: AC-3
Format/Info: Audio Coding 3
Commercial name: Dolby Digital
Codec ID: A_AC3
Duration: 1 h 42 min
Bit rate mode: Constant
Bit rate: 448 kb/s
Channel (s): 6 channels
Channel layout: L R C LFE Ls Rs
Sampling rate: 48.0 kHz
Frame rate: 31.250 FPS (1536 SPF)
Compression mode: Lossy
Stream size: 328 MiB (14%)
Title: Dub — Кипарис
Language: Russian
Service kind: Complete Main
Default: Yes
Forced: No

Audio #2
ID: 3
Format: AC-3
Format/Info: Audio Coding 3
Commercial name: Dolby Digital
Codec ID: A_AC3
Duration: 1 h 43 min
Bit rate mode: Constant
Bit rate: 384 kb/s
Channel (s): 6 channels
Channel layout: L R C LFE Ls Rs
Sampling rate: 48.0 kHz
Frame rate: 31.250 FPS (1536 SPF)
Compression mode: Lossy
Stream size: 283 MiB (12%)
Title: Original
Language: Swedish
Service kind: Complete Main
Default: No
Forced: No

Text #1
ID: 4
Format: UTF-8
Codec ID: S_TEXT/UTF8
Codec ID/Info: UTF-8 Plain Text
Duration: 1 h 35 min
Bit rate: 69 b/s
Frame rate: 0.189 FPS
Count of elements: 1083
Stream size: 48.5 KiB (0%)
Title: Russian full
Language: Russian
Default: No
Forced: No

Text #2
ID: 5
Format: UTF-8
Codec ID: S_TEXT/UTF8
Codec ID/Info: UTF-8 Plain Text
Duration: 1 h 34 min
Bit rate: 44 b/s
Frame rate: 0.228 FPS
Count of elements: 1298
Stream size: 30.8 KiB (0%)
Title: English full
Language: English
Default: No
Forced: No

Menu
00:00:00.000: en: Chapter 01
00:07:07.666: en: Chapter 02
00:16:36.458: en: Chapter 03
00:24:04.416: en: Chapter 04
00:33:29.041: en: Chapter 05
00:42:17.291: en: Chapter 06
00:49:45.125: en: Chapter 07
00:59:49.000: en: Chapter 08
01:08:10.333: en: Chapter 09
01:16:32.625: en: Chapter 10
01:24:08.708: en: Chapter 11
01:34:45.541: en: Chapter 12

Другие фильмы
У данной публикации пока нет комментариев.
Будь первым, оставь своё мнение в комментариях!
Информация
Посетители, находящиеся в группе Гости, не могут оставлять комментарии к данной публикации.
Самый популярный релиз недели
Донаты
Мы в соц. сетях / RSS

Лучшие релизы месяца
Лучшие SD недели
Лучшие 720p недели
Лучшие 1080p недели
Лучшие 4K недели
Вы недавно смотрели
Реклама
Последние комментарии
...

rmzshka

15 мая 2024 13:43

...

Andrey_Vladimirovich

13 мая 2024 18:12

...

Robot

13 мая 2024 16:53

...

rmzshka

13 мая 2024 16:21

...

supermehanik

13 мая 2024 02:03

Реклама