+6

Виво / Vivo (2021) BDRemux 1080p от селезень | D | Netflix

Информация о фильме
Название: Виво
Оригинальное название: Vivo
Год выхода: 2021
Жанр: мультфильм, мюзикл, драма, комедия, приключения, семейный
Режиссер: Кирк де Микко, Брэндон Джеффордс
В ролях: Лин-Мануэль Миранда, Инаирали Симо, Зои Салдана, Хуан Де Маркос Гонзалез, Брайан Тайри Генри, Глория Эстефан, Майкл Рукер, Николь Байер, Кэти Лоус, Оливия Трухильо

О фильме: Кинкажу Виво отправляется в незабываемое путешествие, чтобы исполнить песню, написанную его хозяином Андресом для своей возлюбленной Марты.

Страна: США
Студия: Columbia Pictures Corporation, Sony Pictures Animation
Продолжительность: 01:35:40
Перевод: Дублированный | Netflix

Качество: BDRemux 1080p
Видео: MPEG-4 AVC, 1920x1080, 27.8 Mbit/s, 23.976 fps
Аудио #01: 48 kHz, AC3, 5.1, 640 Kbps | Дублированный | Netflix | RUS |Виво / Vivo (2021) BDRemux 1080p от селезень | D | Netflix
Аудио #02: 48 kHz, E-AC3, 5.1, 640 Kbps | Дублированный | Netflix | RUS |
Аудио #03: 48 kHz, E-AC3, 5.1, 640 Kbps | Дублированный | Netflix | UKR |
Аудио #04: 48 kHz, DTS-HD MA, 5.1, 2336 Kbps | Оригинал | ENG |
Субтитры: Русские (Forced, full), украинские (Forced, full), английские

Виво / Vivo (2021) BDRemux 1080p от селезень | D | Netflix

Авторизуйтесь для получения доступа к скачиванию

Нет аккаунта? Регистрация открыта и займёт меньше минуты

Вход Регистрация

General
Unique ID : 274175302480499174795054183967347393872 (0xCE443E14DD3AF49C54C4071F758F4550)
Complete name : D:\Vivo.2021.BDREMUX.1080p.seleZen.mkv
Format : Matroska
Format version : Version 4
File size : 21.5 GiB
Duration : 1 h 39 min
Overall bit rate mode : Variable
Overall bit rate : 30.8 Mb/s
Movie name : Vivo 2021 from seleZen
Encoded date : UTC 2022-08-02 12:27:41
Writing application : mkvmerge v59.0.0 ('Shining Star') 64-bit
Writing library : libebml v1.4.2 + libmatroska v1.6.4

Video
ID : 1
Format : AVC
Format/Info : Advanced Video Codec
Format profile : [email protected]
Format settings : CABAC / 2 Ref Frames
Format settings, CABAC : Yes
Format settings, Reference : 2 frames
Format settings, GOP : M=1, N=10
Codec ID : V_MPEG4/ISO/AVC
Duration : 1 h 35 min
Bit rate mode : Variable
Bit rate : 27.8 Mb/s
Width : 1 920 pixels
Height : 1 080 pixels
Display aspect ratio : 16:9
Frame rate mode : Constant
Frame rate : 23.976 (24000/1001) FPS
Color space : YUV
Chroma subsampling : 4:2:0
Bit depth : 8 bits
Scan type : Progressive
Bits/(Pixel*Frame) : 0.560
Stream size : 18.6 GiB (87%)
Language : English
Default : No
Forced : No

Audio #1
ID : 2
Format : AC-3
Format/Info : Audio Coding 3
Commercial name : Dolby Digital
Codec ID : A_AC3
Duration : 1 h 39 min
Bit rate mode : Constant
Bit rate : 640 kb/s
Channel(s) : 6 channels
Channel layout : L R C LFE Ls Rs
Sampling rate : 48.0 kHz
Frame rate : 31.250 FPS (1536 SPF)
Compression mode : Lossy
Stream size : 457 MiB (2%)
Title : Dub
Language : Russian
Service kind : Complete Main
Default : Yes
Forced : Yes

Audio #2
ID : 3
Format : E-AC-3
Format/Info : Enhanced AC-3
Commercial name : Dolby Digital Plus
Codec ID : A_EAC3
Duration : 1 h 39 min
Bit rate mode : Constant
Bit rate : 640 kb/s
Channel(s) : 6 channels
Channel layout : L R C LFE Ls Rs
Sampling rate : 48.0 kHz
Frame rate : 31.250 FPS (1536 SPF)
Compression mode : Lossy
Stream size : 457 MiB (2%)
Title : Dub
Language : Russian
Service kind : Complete Main
Default : No
Forced : No

Audio #3
ID : 4
Format : E-AC-3
Format/Info : Enhanced AC-3
Commercial name : Dolby Digital Plus
Codec ID : A_EAC3
Duration : 1 h 39 min
Bit rate mode : Constant
Bit rate : 640 kb/s
Channel(s) : 6 channels
Channel layout : L R C LFE Ls Rs
Sampling rate : 48.0 kHz
Frame rate : 31.250 FPS (1536 SPF)
Compression mode : Lossy
Stream size : 457 MiB (2%)
Title : Dub
Language : Ukrainian
Service kind : Complete Main
Default : No
Forced : No

Audio #4
ID : 5
Format : DTS XLL
Format/Info : Digital Theater Systems
Commercial name : DTS-HD Master Audio
Codec ID : A_DTS
Duration : 1 h 35 min
Bit rate mode : Variable
Bit rate : 2 336 kb/s
Channel(s) : 6 channels
Channel layout : C L R Ls Rs LFE
Sampling rate : 48.0 kHz
Frame rate : 93.750 FPS (512 SPF)
Bit depth : 16 bits
Compression mode : Lossless
Stream size : 1.56 GiB (7%)
Title : Original
Language : English
Default : No
Forced : No

Text #1
ID : 6
Format : UTF-8
Codec ID : S_TEXT/UTF8
Codec ID/Info : UTF-8 Plain Text
Duration : 1 h 26 min
Bit rate : 1 b/s
Frame rate : 0.006 FPS
Count of elements : 29
Stream size : 1.18 KiB (0%)
Title : Forced
Language : Russian
Default : Yes
Forced : Yes

Text #2
ID : 7
Format : UTF-8
Codec ID : S_TEXT/UTF8
Codec ID/Info : UTF-8 Plain Text
Duration : 1 h 34 min
Bit rate : 88 b/s
Frame rate : 0.224 FPS
Count of elements : 1267
Stream size : 61.2 KiB (0%)
Title : Full
Language : Russian
Default : No
Forced : No

Text #3
ID : 8
Format : UTF-8
Codec ID : S_TEXT/UTF8
Codec ID/Info : UTF-8 Plain Text
Duration : 1 h 34 min
Bit rate : 2 b/s
Frame rate : 0.008 FPS
Count of elements : 46
Stream size : 1.60 KiB (0%)
Title : Forced
Language : Ukrainian
Default : No
Forced : No

Text #4
ID : 9
Format : UTF-8
Codec ID : S_TEXT/UTF8
Codec ID/Info : UTF-8 Plain Text
Duration : 1 h 34 min
Bit rate : 99 b/s
Frame rate : 0.235 FPS
Count of elements : 1331
Stream size : 68.5 KiB (0%)
Title : Full
Language : Ukrainian
Default : No
Forced : No

Text #5
ID : 10
Format : UTF-8
Codec ID : S_TEXT/UTF8
Codec ID/Info : UTF-8 Plain Text
Duration : 1 h 32 min
Bit rate : 84 b/s
Frame rate : 0.306 FPS
Count of elements : 1697
Stream size : 57.3 KiB (0%)
Title : SDH
Language : English
Default : No
Forced : No

Menu
00:00:00.000 : Chapter 01
00:05:41.299 : Chapter 02
00:08:37.100 : Chapter 03
00:13:42.405 : Chapter 04
00:18:20.558 : Chapter 05
00:23:15.185 : Chapter 06
00:28:14.610 : Chapter 07
00:35:13.028 : Chapter 08
00:40:35.850 : Chapter 09
00:44:55.401 : Chapter 10
00:50:09.423 : Chapter 11
00:55:39.336 : Chapter 12
01:01:31.438 : Chapter 13
01:06:13.386 : Chapter 14
01:10:50.997 : Chapter 15
01:17:17.591 : Chapter 16

Другие фильмы
У данной публикации пока нет комментариев.
Будь первым, оставь своё мнение в комментариях!
Информация
Посетители, находящиеся в группе Гости, не могут оставлять комментарии к данной публикации.
Самый популярный релиз недели
2.5 Gb ...

Кино копилка
...
Какую тему вы используете?

Реклама
Последние комментарии
...

Robot

Сегодня, 11:12

...

RUZA

Сегодня, 10:42

...

Robot

Сегодня, 08:56

...

orendrevo

Сегодня, 08:18

...

selezinka

Сегодня, 05:03