+7

Добыча / Prey (2022) WEB-DL 1080p от селезень | P

Информация о фильме
Название: Добыча
Оригинальное название: Prey
Год выхода: 2022
Жанр: ужасы, фантастика, боевик
Режиссер: Дэн Трахтенберг
В ролях: Эмбер Мидфандер, Дэйн Дильегро, Harlan Blayne Kytwayhat, Dakota Beavers, Джеронимо Вела, Стефани Матиас, Stormee Kipp, Майк Патерсон, Джулиан Шэмп, Нельсон Картер Лейс

О фильме: Женщина-воин Нару пытается защитить свое племя от одного из первых высокоразвитых Хищников, высадившихся на Земле.

Страна: США
Студия: 20th Century Studios, Davis Entertainment
Продолжительность: 01:39:29
Перевод(ы):
#1: Профессиональный многоголосый | Jaskier
#2: Профессиональный многоголосый | NewComers


Качество: WEB-DL 1080p
Видео: MPEG-4 AVC, 1920x1080, 6577 Kbit/s, 24.000 fps
Аудио #01: 48 kHz, AC3, 5.1, 448 Kbps | Профессиональный многоголосый | Jaskier | RUS |Добыча / Prey (2022) WEB-DL 1080p от селезень | P
Аудио #02: 48 kHz, AC3, 5.1, 384 Kbps | Профессиональный многоголосый | NewComers | RUS |
Аудио #03: 48 kHz, E-AC3+Atmos, 5.1, 768 Kbps | Оригинал | ENG |
Субтитры: Русские (Full), английские

Добыча / Prey (2022) WEB-DL 1080p от селезень | P

Авторизуйтесь для получения доступа к скачиванию

Нет аккаунта? Регистрация открыта и займёт меньше минуты

Вход Регистрация

General
Unique ID : 180006036367610952325044361497278467349 (0x876BE6CCB50B011851B5586A95F0CD15)
Complete name : D:\Prey.2022.1080p.WEB-DL.1080p.seleZen.mkv
Format : Matroska
Format version : Version 4
File size : 5.68 GiB
Duration : 1 h 39 min
Overall bit rate mode : Variable
Overall bit rate : 8 178 kb/s
Movie name : Prey 2022 from seleZen
Encoded date : UTC 2022-08-07 12:21:23
Writing application : mkvmerge v59.0.0 ('Shining Star') 64-bit
Writing library : libebml v1.4.2 + libmatroska v1.6.4

Video
ID : 1
Format : AVC
Format/Info : Advanced Video Codec
Format profile : [email protected]
Format settings : CABAC / 4 Ref Frames
Format settings, CABAC : Yes
Format settings, Reference : 4 frames
Codec ID : V_MPEG4/ISO/AVC
Duration : 1 h 39 min
Bit rate mode : Variable
Bit rate : 6 577 kb/s
Maximum bit rate : 12.7 Mb/s
Width : 1 920 pixels
Height : 1 080 pixels
Display aspect ratio : 16:9
Frame rate mode : Constant
Frame rate : 24.000 FPS
Color space : YUV
Chroma subsampling : 4:2:0
Bit depth : 8 bits
Scan type : Progressive
Bits/(Pixel*Frame) : 0.132
Stream size : 4.57 GiB (80%)
Language : English
Default : Yes
Forced : No
Color range : Limited
Color primaries : BT.709
Transfer characteristics : BT.709
Matrix coefficients : BT.709

Audio #1
ID : 2
Format : AC-3
Format/Info : Audio Coding 3
Commercial name : Dolby Digital
Codec ID : A_AC3
Duration : 1 h 39 min
Bit rate mode : Constant
Bit rate : 448 kb/s
Channel(s) : 6 channels
Channel layout : L R C LFE Ls Rs
Sampling rate : 48.0 kHz
Frame rate : 31.250 FPS (1536 SPF)
Compression mode : Lossy
Stream size : 319 MiB (5%)
Title : MVO [Jaskier]
Language : Russian
Service kind : Complete Main
Default : Yes
Forced : Yes

Audio #2
ID : 3
Format : AC-3
Format/Info : Audio Coding 3
Commercial name : Dolby Digital
Codec ID : A_AC3
Duration : 1 h 39 min
Bit rate mode : Constant
Bit rate : 384 kb/s
Channel(s) : 6 channels
Channel layout : L R C LFE Ls Rs
Sampling rate : 48.0 kHz
Frame rate : 31.250 FPS (1536 SPF)
Compression mode : Lossy
Stream size : 273 MiB (5%)
Title : MVO [NewComers]
Language : Russian
Service kind : Complete Main
Default : No
Forced : No

Audio #3
ID : 4
Format : E-AC-3 JOC
Format/Info : Enhanced AC-3 with Joint Object Coding
Commercial name : Dolby Digital Plus with Dolby Atmos
Codec ID : A_EAC3
Duration : 1 h 39 min
Bit rate mode : Constant
Bit rate : 768 kb/s
Channel(s) : 6 channels
Channel layout : L R C LFE Ls Rs
Sampling rate : 48.0 kHz
Frame rate : 31.250 FPS (1536 SPF)
Compression mode : Lossy
Stream size : 547 MiB (9%)
Title : Original
Language : English
Service kind : Complete Main
Default : No
Forced : No
Complexity index : 16
Number of dynamic objects : 15
Bed channel count : 1 channel
Bed channel configuration : LFE

Text #1
ID : 5
Format : UTF-8
Codec ID : S_TEXT/UTF8
Codec ID/Info : UTF-8 Plain Text
Duration : 1 h 28 min
Bit rate : 23 b/s
Frame rate : 0.067 FPS
Count of elements : 359
Stream size : 15.6 KiB (0%)
Title : Full
Language : Russian
Default : No
Forced : No

Text #2
ID : 6
Format : UTF-8
Codec ID : S_TEXT/UTF8
Codec ID/Info : UTF-8 Plain Text
Duration : 1 h 28 min
Bit rate : 15 b/s
Frame rate : 0.072 FPS
Count of elements : 381
Stream size : 9.78 KiB (0%)
Title : Full
Language : English
Default : No
Forced : No

Text #3
ID : 7
Format : UTF-8
Codec ID : S_TEXT/UTF8
Codec ID/Info : UTF-8 Plain Text
Duration : 1 h 29 min
Bit rate : 29 b/s
Frame rate : 0.158 FPS
Count of elements : 852
Stream size : 19.5 KiB (0%)
Title : SDH
Language : English
Default : No
Forced : No

Другие фильмы
Комментарии:

...
bolonka123 30 августа 2022 16:30
0

Обновите пожалуйста раздачу дубляжом от RedHeadSound по возможности..

...
gotgame1 7 августа 2022 20:52
0

Thanks for the share

Информация
Посетители, находящиеся в группе Гости, не могут оставлять комментарии к данной публикации.
Самый популярный релиз недели
2.5 Gb ...

Кино копилка
...
Какую тему вы используете?

Реклама
Последние комментарии
...

Robot

Сегодня, 11:12

...

RUZA

Сегодня, 10:42

...

Robot

Сегодня, 08:56

...

orendrevo

Сегодня, 08:18

...

selezinka

Сегодня, 05:03