+5

Проклятие. Ночь страха / You Are Not My Mother (2021) BDRip-AVC от DoMiNo & селезень | D, A

Информация о фильме
Название: Проклятие. Ночь страха
Оригинальное название: You Are Not My Mother
Год выхода: 2021
Жанр: ужасы, драма
Режиссер: Кейт Долан
В ролях: Хэйзел Дуп, Кэролин Брекен, Пол Рейд, Джейд Джордан, Джордан Джонс, Ингрид Крейги, Мириам Дэвитт, Мартин О’Салливан

О фильме:
Незадолго до Хэллоуина прикованная к постели женщина внезапно исчезает и вскоре так же неожиданно объявляется живая и вроде бы здоровая. Но чем ближе День всех святых, тем более странным и пугающим становится её поведение. Чтобы спасти мать и самой остаться в живых, её дочери-подростку предстоит разобраться не только в преданиях родной земли, но и в страшных семейных тайнах.

Страна: Ирландия
Студия: Bankside Films, Fantastic Films Ltd., Irish Film Board
Продолжительность: 01:33:11
Перевод 1: Профессиональный (полное дублирование) | Pride Production (+ вставки DVO)
Перевод 2: Авторский | Есарев Дмитрий
Субтитры: Русские (Forced, 2x Full), Английские (Full, SDH)

Файл
Формат: Matroska
Качество: BDRip-AVC [исх.You.Are.Not.My.Mother.2021.BluRay.REMUX.1080p.AVC.DTS-HD.MA5.1-HDS]
Видео: 1024x428 at 23.976 fps, [email protected], ~1674 kbps
Аудио 1: AC3, 6 ch, ~384 kbps - | Русский | Проклятие. Ночь страха / You Are Not My Mother (2021) BDRip-AVC от DoMiNo & селезень | D, A | Pride Production
Аудио 2: AC3, 6 ch, ~384 kbps - | Русский | | Есарев Дмитрий
Аудио 3: AC3, 6 ch, ~448 kbps - | Английский | | Original
Формат субтитров: softsub (SRT)

Проклятие. Ночь страха / You Are Not My Mother (2021) BDRip-AVC от DoMiNo & селезень | D, A

Авторизуйтесь для получения доступа к скачиванию

Нет аккаунта? Регистрация открыта и займёт меньше минуты

Вход Регистрация

x264 [info]: frame I:897 Avg QP:12.93 size: 46041
x264 [info]: frame P:23211 Avg QP:14.01 size: 17836
x264 [info]: frame B:109942 Avg QP:15.68 size: 6498

General
Unique ID : 9153225566342214261842267175415358225 (0x6E2D8DCE532FC87CBA045A49D4EA311)
Complete name : R:You.Are.Not.My.Mother.2021.D.A.BDRip.x264.seleZen.mkv
Format : Matroska
Format version : Version 4
File size : 1.76 GiB
Duration : 1 h 33 min
Overall bit rate : 2 700 kb/s
Frame rate : 23.976 FPS
Movie name : You.Are.Not.My.Mother.2021.D.A.BDRip.x264.seleZen
Encoded date : 2024-04-15 07:56:21 UTC
Writing application : mkvmerge v83.0 ('Circle Of Friends') 64-bit
Writing library : libebml v1.4.5 + libmatroska v1.7.1
Cover : Yes
Attachments : cover.jpg / small_cover.jpg

Video
ID : 1
Format : AVC
Format/Info : Advanced Video Codec
Format profile : [email protected]
Format settings : CABAC / 12 Ref Frames
Format settings, CABAC : Yes
Format settings, Reference : 12 frames
Codec ID : V_MPEG4/ISO/AVC
Duration : 1 h 33 min
Bit rate : 1 674 kb/s
Width : 1 024 pixels
Height : 428 pixels
Display aspect ratio : 2.39:1
Frame rate mode : Constant
Frame rate : 23.976 (24000/1001) FPS
Color space : YUV
Chroma subsampling : 4:2:0
Bit depth : 8 bits
Scan type : Progressive
Bits/(Pixel*Frame) : 0.159
Stream size : 1.09 GiB (62%)
Title : -=DoMiNo=-
Writing library : x264 core 164 by -=DoMiNo=-
Encoding settings : cabac=1 / ref=12 / deblock=1:-3:-3 / analyse=0x3:0x133 / me=umh / subme=11 / psy=1 / psy_rd=1.03:0.02 / mixed_ref=1 / me_range=32 / chroma_me=1 / trellis=2 / 8x8dct=1 / cqm=0 / deadzone=21,11 / fast_pskip=0 / chroma_qp_offset=-3 / threads=17 / lookahead_threads=3 / sliced_threads=0 / nr=0 / decimate=0 / interlaced=0 / bluray_compat=0 / constrained_intra=0 / bframes=10 / b_pyramid=2 / b_adapt=2 / b_bias=0 / direct=1 / weightb=1 / open_gop=0 / weightp=2 / keyint=250 / keyint_min=23 / scenecut=40 / intra_refresh=0 / rc_lookahead=60 / rc=crf / mbtree=0 / crf=17.5 / qcomp=0.60 / qpmin=0 / qpmax=69 / qpstep=4 / vbv_maxrate=50000 / vbv_bufsize=62500 / crf_max=0.0 / nal_hrd=none / filler=0 / ip_ratio=1.30 / pb_ratio=1.20 / aq=3:0.80
Language : English
Default : Yes
Forced : No
Color range : Limited
Color primaries : BT.709
Transfer characteristics : BT.709
Matrix coefficients : BT.709

Audio #1
ID : 2
Format : AC-3
Format/Info : Audio Coding 3
Commercial name : Dolby Digital
Codec ID : A_AC3
Duration : 1 h 33 min
Bit rate mode : Constant
Bit rate : 192 kb/s
Channel(s) : 2 channels
Channel layout : L R
Sampling rate : 48.0 kHz
Frame rate : 31.250 FPS (1536 SPF)
Compression mode : Lossy
Stream size : 128 MiB (7%)
Title : DUB -Pride Production
Language : Russian
Service kind : Complete Main
Default : Yes
Forced : No

Audio #2
ID : 3
Format : AC-3
Format/Info : Audio Coding 3
Commercial name : Dolby Digital
Codec ID : A_AC3
Duration : 1 h 33 min
Bit rate mode : Constant
Bit rate : 384 kb/s
Channel(s) : 6 channels
Channel layout : L R C LFE Ls Rs
Sampling rate : 48.0 kHz
Frame rate : 31.250 FPS (1536 SPF)
Compression mode : Lossy
Stream size : 256 MiB (14%)
Title : AVO -Есарев Дмитрий
Language : Russian
Service kind : Complete Main
Default : No
Forced : No
AC3_metadata cmixlev : -3.0 dB
surmixlev : -6 dB

Audio #3
ID : 4
Format : AC-3
Format/Info : Audio Coding 3
Commercial name : Dolby Digital
Codec ID : A_AC3
Duration : 1 h 33 min
Bit rate mode : Constant
Bit rate : 448 kb/s
Channel(s) : 6 channels
Channel layout : L R C LFE Ls Rs
Sampling rate : 48.0 kHz
Frame rate : 31.250 FPS (1536 SPF)
Compression mode : Lossy
Stream size : 299 MiB (17%)
Title : Original
Language : Russian
Service kind : Complete Main
Default : No
Forced : No
AC3_metadata cmixlev : -4.5 dB
surmixlev : -6 dB

Text #1
ID : 5
Format : UTF-8
Codec ID : S_TEXT/UTF8
Codec ID/Info : UTF-8 Plain Text
Duration : 12 min 3 s
Bit rate : 0 b/s
Frame rate : 0.003 FPS
Count of elements : 2
Stream size : 76.0 Bytes (0%)
Title : Forced
Language : Russian
Default : No
Forced : No

Text #2
ID : 6
Format : UTF-8
Codec ID : S_TEXT/UTF8
Codec ID/Info : UTF-8 Plain Text
Duration : 1 h 27 min
Bit rate : 45 b/s
Frame rate : 0.148 FPS
Count of elements : 772
Stream size : 28.9 KiB (0%)
Title : Full
Language : Russian
Default : No
Forced : No

Text #3
ID : 7
Format : UTF-8
Codec ID : S_TEXT/UTF8
Codec ID/Info : UTF-8 Plain Text
Duration : 1 h 26 min
Bit rate : 54 b/s
Frame rate : 0.150 FPS
Count of elements : 781
Stream size : 34.9 KiB (0%)
Title : Full
Language : Russian
Default : No
Forced : No

Text #4
ID : 8
Format : UTF-8
Codec ID : S_TEXT/UTF8
Codec ID/Info : UTF-8 Plain Text
Duration : 1 h 26 min
Bit rate : 34 b/s
Frame rate : 0.149 FPS
Count of elements : 775
Stream size : 22.3 KiB (0%)
Title : Full
Language : English
Default : No
Forced : No

Text #5
ID : 9
Format : UTF-8
Codec ID : S_TEXT/UTF8
Codec ID/Info : UTF-8 Plain Text
Duration : 1 h 27 min
Bit rate : 40 b/s
Frame rate : 0.178 FPS
Count of elements : 941
Stream size : 26.0 KiB (0%)
Title : SDH
Language : English
Default : No
Forced : No

Menu
00:00:00.000 : Chapter 01
00:10:05.605 : Chapter 02
00:18:03.707 : Chapter 03
00:26:28.587 : Chapter 04
00:36:28.186 : Chapter 05
00:46:30.788 : Chapter 06
00:56:11.368 : Chapter 07
01:04:55.892 : Chapter 08
01:13:30.406 : Chapter 09
01:18:51.727 : Chapter 10
01:28:44.319 : Chapter 11

Другие фильмы
У данной публикации пока нет комментариев.
Будь первым, оставь своё мнение в комментариях!
Информация
Посетители, находящиеся в группе Гости, не могут оставлять комментарии к данной публикации.
Самый популярный релиз недели
Донаты
Мы в соц. сетях / RSS

Лучшие релизы месяца
Лучшие SD недели
Лучшие 720p недели
Лучшие 1080p недели
Лучшие 4K недели
Вы недавно смотрели
Реклама
Последние комментарии
...

rmzshka

15 мая 2024 13:43

...

Andrey_Vladimirovich

13 мая 2024 18:12

...

Robot

13 мая 2024 16:53

...

rmzshka

13 мая 2024 16:21

...

supermehanik

13 мая 2024 02:03

Реклама