+1

Автостопом на автобусе / Последний автобус / The Last Bus (2021) BDRemux 1080p от селезень | D

Информация о фильме
Название: Автостопом на автобусе
Оригинальное название: The Last Bus
Год выхода: 2021
Жанр: драма
Режиссер: Гиллис МакКиннон
В ролях: Тимоти Сполл, Филлис Логан, Натали Митсон, Бен Юинг, Патриша Пантера, Стивен Даффи, Саския Эшдаун, Скотт Кэмпбелл, Энн Кидд, Айла Гэвин

О фильме: После смерти жены Том отправляется на другой конец страны, пользуясь только местными бесплатными автобусами. Его маршрут глубоко символичен: ведь именно таким образом много лет назад они с женой приехали в их нынешний дом. Во время этого ностальгического путешествия Том становится настоящей знаменитостью и неожиданно для себя самого обретает будущее.

Страна: Великобритания, ОАЭ
Студия: Head Gear Films, Hurricane Films, Kreo Films FZ, Metrol Technology
Продолжительность: 01:25:49
Перевод: Дублированный | Paragraph Media

Качество: BDRemux 1080p
Видео: MPEG-4 AVC, 1920x1080, 34.6 Mbit/s, 24.000 fps
Аудио #01: 48 kHz, AC3, 5.1, 448 Kbps | Дублированный | Paragraph Media | RUS |Автостопом на автобусе / Последний автобус / The Last Bus (2021) BDRemux 1080p от селезень | D
Аудио #02: 48 kHz, DTS-HD MA, 5.1, 3575 Kbps | Оригинал | ENG |
Субтитры: Английские

Автостопом на автобусе / Последний автобус / The Last Bus (2021) BDRemux 1080p от селезень | D

Авторизуйтесь для получения доступа к скачиванию

Нет аккаунта? Регистрация открыта и займёт меньше минуты

Вход Регистрация

General
Unique ID : 55767742999003996866986721640891419509 (0x29F47A0396D7F25F060D047EE34E0B75)
Complete name : D:\Videos\The.Last.Bus.2021.BDREMUX.1080p.seleZen.mkv
Format : Matroska
Format version : Version 4
File size : 23.1 GiB
Duration : 1 h 25 min
Overall bit rate mode : Variable
Overall bit rate : 38.6 Mb/s
Movie name : The Last Bus 2021 from seleZen
Encoded date : UTC 2022-11-24 08:31:39
Writing application : mkvmerge v59.0.0 ('Shining Star') 64-bit
Writing library : libebml v1.4.2 + libmatroska v1.6.4

Video
ID : 1
ID in the original source m : 4113 (0x1011)
Format : AVC
Format/Info : Advanced Video Codec
Format profile : [email protected]
Format settings : CABAC / 4 Ref Frames
Format settings, CABAC : Yes
Format settings, Reference : 4 frames
Codec ID : V_MPEG4/ISO/AVC
Duration : 1 h 25 min
Bit rate mode : Variable
Bit rate : 34.6 Mb/s
Maximum bit rate : 36.0 Mb/s
Width : 1 920 pixels
Height : 1 080 pixels
Display aspect ratio : 16:9
Frame rate mode : Constant
Frame rate : 24.000 FPS
Color space : YUV
Chroma subsampling : 4:2:0
Bit depth : 8 bits
Scan type : Progressive
Bits/(Pixel*Frame) : 0.695
Stream size : 20.7 GiB (90%)
Language : English
Default : Yes
Forced : No
Original source medium : Blu-ray

Audio #1
ID : 2
Format : AC-3
Format/Info : Audio Coding 3
Commercial name : Dolby Digital
Codec ID : A_AC3
Duration : 1 h 25 min
Bit rate mode : Constant
Bit rate : 448 kb/s
Channel(s) : 6 channels
Channel layout : L R C LFE Ls Rs
Sampling rate : 48.0 kHz
Frame rate : 31.250 FPS (1536 SPF)
Compression mode : Lossy
Stream size : 275 MiB (1%)
Title : Dub
Language : Russian
Service kind : Complete Main
Default : Yes
Forced : Yes

Audio #2
ID : 3
ID in the original source m : 4353 (0x1101)
Format : DTS XLL
Format/Info : Digital Theater Systems
Commercial name : DTS-HD Master Audio
Codec ID : A_DTS
Duration : 1 h 25 min
Bit rate mode : Variable
Bit rate : 3 575 kb/s
Channel(s) : 6 channels
Channel layout : C L R Ls Rs LFE
Sampling rate : 48.0 kHz
Frame rate : 93.750 FPS (512 SPF)
Bit depth : 24 bits
Compression mode : Lossless
Stream size : 2.14 GiB (9%)
Title : Original
Language : English
Default : No
Forced : No
Original source medium : Blu-ray

Text
ID : 4
Format : UTF-8
Codec ID : S_TEXT/UTF8
Codec ID/Info : UTF-8 Plain Text
Duration : 1 h 20 min
Bit rate : 34 b/s
Frame rate : 0.175 FPS
Count of elements : 848
Stream size : 20.2 KiB (0%)
Title : Full
Language : English
Default : No
Forced : No

Menu
00:00:00.000 : Chapter 01
00:04:24.541 : Chapter 02
00:09:55.375 : Chapter 03
00:14:59.791 : Chapter 04
00:20:53.625 : Chapter 05
00:26:14.666 : Chapter 06
00:31:50.791 : Chapter 07
00:37:23.416 : Chapter 08
00:41:44.250 : Chapter 09
00:49:52.500 : Chapter 10
00:53:57.166 : Chapter 11
00:58:35.083 : Chapter 12
01:02:44.208 : Chapter 13
01:09:26.750 : Chapter 14
01:16:27.666 : Chapter 15
01:22:22.458 : Chapter 16

Другие фильмы
У данной публикации пока нет комментариев.
Будь первым, оставь своё мнение в комментариях!
Информация
Посетители, находящиеся в группе Гости, не могут оставлять комментарии к данной публикации.
Самый популярный релиз недели
WEB-DL 1080p 8.93 Gb ...

Кино копилка
...
Какую тему вы используете?

Реклама
Последние комментарии
...

Desol

29 ноября 2022 00:09

...

quatro78

28 ноября 2022 12:46

...

ovdm86

26 ноября 2022 21:37

...

KDA

24 ноября 2022 17:01

...

pavklim

22 ноября 2022 19:25

Реклама