+19

Мой домашний крокодил / Lyle, Lyle, Crocodile (2022) BDRip 720p от DoMiNo & селезень | D, P

Информация о фильме
Название: Мой домашний крокодил
Оригинальное название: Lyle, Lyle, Crocodile
Год выпуска: 2022
Жанр: Комедия, фэнтези, мюзикл, семейный
Режиссёр: Джош Гордон, Уилл Спек
В ролях: Хавьер Бардем, Уинслоу Фегли, Шон Мендес, Констанс Ву, Скут МакНэри, Бретт Гельман, Эго Нводим, Лайрик Херд, Джейсон Кравиц, Бен Палашиос, Сэл Вискузо, Адам Мюррэй, Мэри Нили, Дон ДиПетта, Линдси Мосер, Мэттью Риш, Клэйтон Инглиш, Мэтт Уилкас, Лорен Бойд, Анджела Дэвис, Тейлор Джеймс, Аль Томпсон

Описание:
Семья Примм переезжает в Нью-Йорк, где выясняется, что в их доме на чердаке живёт поющий крокодил Лайл. Лайл помогает адаптироваться после переезда маленькому Джошу Примму. Но злобный сосед мистер Грампс хочет, чтобы зверя изолировали от людей.

Страна: США
Студия: Eagle Pictures, Hutch Parker Entertainment, Sony Pictures Entertainment, Speck & Gordon, TSG Entertainment
Продолжительность: 01:46:38
Перевод 1: Профессиональный (дублированный) | Bravo Records Georgia, Грузия
Перевод 2: Профессиональный (многоголосый закадровый) | Jaskier
Перевод 3: Профессиональный (многоголосый закадровый) | TVShows
Субтитры: Русские (4x Forced, Full), украинские (Forced, Full), английские (Full, SDH)

Файл
Формат: Matroska
Качество: BDRip 720p
Видео: 1280x536 at 23.976 fps, [email protected], ~2739 kbps
Аудио 1: AC3, 6 ch, ~448 kbps - | Русский | Мой домашний крокодил / Lyle, Lyle, Crocodile (2022) BDRip 720p от DoMiNo & селезень | D, P | Bravo Records Georgia
Аудио 2: E-AC3, 6 ch, ~448 kbps - | Русский | | Bravo Records Georgia
Аудио 3: AC3, 6 ch, ~448 kbps - | Русский | | Jaskier
Аудио 4: AC3, 6 ch, ~448 kbps - | Русский | | TVShows
Аудио 5: AC3, 6 ch, ~640 kbps - | Английский | | Original
Формат субтитров: softsub (SRT)

Мой домашний крокодил / Lyle, Lyle, Crocodile (2022) BDRip 720p от DoMiNo & селезень | D, P

Авторизуйтесь для получения доступа к скачиванию

Нет аккаунта? Регистрация открыта и займёт меньше минуты

Вход Регистрация

x264 [info]: frame I: 1240 Avg QP: 13.24 size: 83777
x264 [info]: frame P: 35560 Avg QP: 14.82 size: 30068
x264 [info]: frame B: 116608 Avg QP: 17.43 size: 8726
x264 [info]: consecutive B-frames: 2,3% 3,5% 7,8% 34,2% 15,4% 24,9% 4,4% 5,7% 1,1% 0,3% 0,3%

General
Unique ID: 139648289292404641260372742055449664697 (0×690F483E75D9AFD4850DFAC2141D1CB9)
Complete name: D: Lyle, Lyle, Crocodile.2022.DUB.MVO.BDRip.720p.x264.seleZen.mkv
Format: Matroska
Format version: Version 4
File size: 3.86 GiB
Duration: 1 h 46 min
Overall bit rate: 5 168 kb/s
Frame rate: 23.976 FPS
Movie name: Lyle, Lyle, Crocodile.2022.DUB.MVO.BDRip.720p.x264.seleZen
Encoded date: 18.09.2023 07:23:26 UTC
Writing application: mkvmerge v79.0 ('Funeral Pyres') 64-bit
Writing library: libebml v1.4.4 + libmatroska v1.7.1
Cover: Yes
Attachments: cover.jpg / small_cover.jpg

Video
ID: 1
Format: AVC
Format/Info: Advanced Video Codec
Format profile: [email protected]
Format settings: CABAC / 12 Ref Frames
Format settings, CABAC: Yes
Format settings, Reference: 12 frames
Codec ID: V_MPEG4/ISO/AVC
Duration: 1 h 46 min
Bit rate: 2 739 kb/s
Width: 1 280 pixels
Height: 536 pixels
Display aspect ratio: 2.40:1
Frame rate mode: Constant
Frame rate: 23.976 (24000/1001) FPS
Color space: YUV
Chroma subsampling: 4:2:0
Bit depth: 8 bits
Scan type: Progressive
Bits/(Pixel*Frame): 0.167
Stream size: 2.04 GiB (53%)
Title: -=DoMiNo=-
Writing library: x264 core 164 r3099+55M 141af3f t_mod_New | by -=DoMiNo=- | X86_64
Encoding settings: cabac=1 / ref=12 / deblock=1:-3:-2 / analyse=0×3:0×133 / me=umh / subme=10 / psy=1 / fade_compensate=0.00 / psy_rd=1.05:0.00 / mixed_ref=1 / me_range=32 / chroma_me=1 / trellis=2 / 8×8dct=1 / cqm=0 / deadzone=21,11 / fast_pskip=0 / chroma_qp_offset=-2 / threads=17 / lookahead_threads=4 / sliced_threads=0 / nr=0 / decimate=1 / interlaced=0 / bluray_compat=0 / constrained_intra=0 / fgo=0 / bframes=10 / b_pyramid=2 / b_adapt=2 / b_bias=0 / direct=1 / weightb=1 / open_gop=0 / weightp=2 / keyint=250 / keyint_min=23 / scenecut=40 / intra_refresh=0 / rc_lookahead=60 / rc=crf / mbtree=0 / crf=16.5000 / qcomp=0.60 / qpmin=0:0:0 / qpmax=69:69:69 / qpstep=4 / vbv_maxrate=50000 / vbv_bufsize=62500 / crf_max=0.0 / nal_hrd=none / filler=0 / ip_ratio=1.35 / pb_ratio=1.25 / aq=3:0.80 / aq-sensitivity=10.00 / aq-factor=1.00:1.00:1.00 / aq2=0 / aq3=0
Language: English
Default: Yes
Forced: No
Color range: Limited
Matrix coefficients: BT.709

Audio #1
ID: 2
Format: AC-3
Format/Info: Audio Coding 3
Commercial name: Dolby Digital
Codec ID: A_AC3
Duration: 1 h 46 min
Bit rate mode: Constant
Bit rate: 448 kb/s
Channel (s): 6 channels
Channel layout: L R C LFE Ls Rs
Sampling rate: 48.0 kHz
Frame rate: 31.250 FPS (1536 SPF)
Compression mode: Lossy
Stream size: 342 MiB (9%)
Title: Dub [Bravo Records Georgia]
Language: Russian
Service kind: Complete Main
Default: Yes
Forced: No

Audio #2
ID: 3
Format: E-AC-3
Format/Info: Enhanced AC-3
Commercial name: Dolby Digital Plus
Codec ID: A_EAC3
Duration: 1 h 46 min
Bit rate mode: Constant
Bit rate: 448 kb/s
Channel (s): 6 channels
Channel layout: L R C LFE Ls Rs
Sampling rate: 48.0 kHz
Frame rate: 31.250 FPS (1536 SPF)
Compression mode: Lossy
Stream size: 342 MiB (9%)
Title: Dub [Bravo Records Georgia]
Language: Russian
Service kind: Complete Main
Default: No
Forced: No

Audio #3
ID: 4
Format: AC-3
Format/Info: Audio Coding 3
Commercial name: Dolby Digital
Codec ID: A_AC3
Duration: 1 h 46 min
Bit rate mode: Constant
Bit rate: 448 kb/s
Channel (s): 6 channels
Channel layout: L R C LFE Ls Rs
Sampling rate: 48.0 kHz
Frame rate: 31.250 FPS (1536 SPF)
Bit depth: 16 bits
Compression mode: Lossy
Stream size: 342 MiB (9%)
Title: MVO_[Jaskier]
Language: Russian
Service kind: Complete Main
Default: No
Forced: No

Audio #4
ID: 5
Format: AC-3
Format/Info: Audio Coding 3
Commercial name: Dolby Digital
Codec ID: A_AC3
Duration: 1 h 46 min
Bit rate mode: Constant
Bit rate: 448 kb/s
Channel (s): 6 channels
Channel layout: L R C LFE Ls Rs
Sampling rate: 48.0 kHz
Frame rate: 31.250 FPS (1536 SPF)
Compression mode: Lossy
Stream size: 342 MiB (9%)
Title: MVO [TVShows]
Language: Russian
Service kind: Complete Main
Default: No
Forced: No

Audio #5
ID: 6
Format: AC-3
Format/Info: Audio Coding 3
Commercial name: Dolby Digital
Codec ID: A_AC3
Duration: 1 h 46 min
Bit rate mode: Constant
Bit rate: 640 kb/s
Channel (s): 6 channels
Channel layout: L R C LFE Ls Rs
Sampling rate: 48.0 kHz
Frame rate: 31.250 FPS (1536 SPF)
Compression mode: Lossy
Stream size: 488 MiB (12%)
Title: Original
Language: English
Service kind: Complete Main
Default: No
Forced: No

Text #1
ID: 7
Format: UTF-8
Codec ID: S_TEXT/UTF8
Codec ID/Info: UTF-8 Plain Text
Duration: 1 h 38 min
Bit rate: 6 b/s
Frame rate: 0.017 FPS
Count of elements: 101
Stream size: 4.33 KiB (0%)
Title: Forced [for Dub]
Language: Russian
Default: No
Forced: No

Text #2
ID: 8
Format: UTF-8
Codec ID: S_TEXT/UTF8
Codec ID/Info: UTF-8 Plain Text
Duration: 1 h 38 min
Bit rate: 8 b/s
Frame rate: 0.022 FPS
Count of elements: 130
Stream size: 5.93 KiB (0%)
Title: Forced [for Jaskier v.1]
Language: Russian
Default: No
Forced: No

Text #3
ID: 9
Format: UTF-8
Codec ID: S_TEXT/UTF8
Codec ID/Info: UTF-8 Plain Text
Duration: 1 h 38 min
Bit rate: 24 b/s
Frame rate: 0.063 FPS
Count of elements: 369
Stream size: 17.8 KiB (0%)
Title: Forced + songs [for Jaskier v.2]
Language: Russian
Default: No
Forced: No

Text #4
ID: 10
Format: UTF-8
Codec ID: S_TEXT/UTF8
Codec ID/Info: UTF-8 Plain Text
Duration: 1 h 38 min
Bit rate: 5 b/s
Frame rate: 0.015 FPS
Count of elements: 91
Stream size: 3.95 KiB (0%)
Title: Forced [for TVShows]
Language: Russian
Default: No
Forced: No

Text #5
ID: 11
Format: UTF-8
Codec ID: S_TEXT/UTF8
Codec ID/Info: UTF-8 Plain Text
Duration: 1 h 39 min
Bit rate: 79 b/s
Frame rate: 0.218 FPS
Count of elements: 1299
Stream size: 57.6 KiB (0%)
Title: Full [КиноПоиск]
Language: Russian
Default: No
Forced: No

Text #6
ID: 12
Format: UTF-8
Codec ID: S_TEXT/UTF8
Codec ID/Info: UTF-8 Plain Text
Duration: 1 h 39 min
Bit rate: 6 b/s
Frame rate: 0.019 FPS
Count of elements: 110
Stream size: 4.70 KiB (0%)
Title: Forced
Language: Ukrainian
Default: No
Forced: No

Text #7
ID: 13
Format: UTF-8
Codec ID: S_TEXT/UTF8
Codec ID/Info: UTF-8 Plain Text
Duration: 1 h 45 min
Bit rate: 77 b/s
Frame rate: 0.204 FPS
Count of elements: 1289
Stream size: 60.1 KiB (0%)
Title: Full
Language: Ukrainian
Default: No
Forced: No

Text #8
ID: 14
Format: UTF-8
Codec ID: S_TEXT/UTF8
Codec ID/Info: UTF-8 Plain Text
Duration: 1 h 38 min
Bit rate: 51 b/s
Frame rate: 0.210 FPS
Count of elements: 1249
Stream size: 37.6 KiB (0%)
Title: Full
Language: English
Default: No
Forced: No

Text #9
ID: 15
Format: UTF-8
Codec ID: S_TEXT/UTF8
Codec ID/Info: UTF-8 Plain Text
Duration: 1 h 44 min
Bit rate: 66 b/s
Frame rate: 0.249 FPS
Count of elements: 1559
Stream size: 50.4 KiB (0%)
Title: SDH
Language: English
Default: No
Forced: No

Menu
00:00:00.000: en: Chapter 1
00:05:06.222: en: Chapter 2
00:11:08.376: en: Chapter 3
00:17:56.408: en: Chapter 4
00:23:42.629: en: Chapter 5
00:29:58.004: en: Chapter 6
00:38:41.110: en: Chapter 7
00:46:31.872: en: Chapter 8
00:52:39.197: en: Chapter 9
00:57:19.602: en: Chapter 10
01:01:14.712: en: Chapter 11
01:05:06.027: en: Chapter 12
01:10:06.577: en: Chapter 13
01:12:50.157: en: Chapter 14
01:17:49.414: en: Chapter 15
01:22:46.044: en: Chapter 16
01:40:05.625: en: Chapter 17

Другие фильмы
У данной публикации пока нет комментариев.
Будь первым, оставь своё мнение в комментариях!
Информация
Посетители, находящиеся в группе Гости, не могут оставлять комментарии к данной публикации.
Самый популярный релиз недели
Донаты
Мы в соц. сетях / RSS

Лучшие релизы месяца
Лучшие SD недели
Лучшие 720p недели
Лучшие 1080p недели
Лучшие 4K недели
Вы недавно смотрели
Реклама
Последние комментарии
...

alexei5881

Вчера, 14:20

...

Laska020489

Вчера, 00:06

...

Laska020489

9 декабря 2023 23:50

...

medjack

9 декабря 2023 16:19

...

RisingUA

9 декабря 2023 13:09

Реклама