+15

Пиноккио Гильермо дель Торо / Guillermo del Toro’s Pinocchio (2022) BDRip-AVC от DoMiNo & селезень | D

Информация о фильме
Название: Пиноккио Гильермо дель Торо
Оригинальное название: Guillermo del Toro’s Pinocchio
Год выхода: 2022
Жанр: мультфильм, мюзикл, фэнтези, драма, семейный
Режиссер: Гильермо Дель Торо, Марк Густафсон
В ролях: Эван МакГрегор, Грегори Манн, Дэвид Брэдли (I), Рон Перлман, Тильда Суинтон, Кристоф Вальц, Кейт Бланшетт, Тим Блэйк Нельсон, Финн Вулфард, Джон Туртурро, Берн Горман, Оливье Саркози

О фильме:
Кукольный мультфильм Гильермо дель Торо о деревянном мальчике из одноименной сказки Карло Коллоди. Пиноккио мечтает стать настоящим ребенком, но чувствует, что не может заменить Джепетто его умершего сына. Чтобы не быть обузой для старика, он уходит из дома, и впереди его ждут невероятные приключения в порой жестоком мире.

Страна: США, Мексика, Франция
Студия: Netflix Animation, The Jim Henson Company, ShadowMachine, Necropia Entertainment
Продолжительность: 01:57:45
Перевод: Дублированный (неофициальный) | Red Head Sound
Субтитры: Русские (Forced, Full), английские, французские, испанские

Файл
Формат: Matroska
Качество: BDRip-AVC [исх.Guillermo.del.Toros.Pinocchio.2022.1080p.BluRay.REMUX.AVC.Atmos-TRiToN]
Видео: 1024x554 at 23.976 fps, [email protected], ~1393 kbps
Аудио: AC3, 6 ch, ~384 kbps - | Русский | Пиноккио Гильермо дель Торо / Guillermo del Toro’s Pinocchio (2022) BDRip-AVC от DoMiNo & селезень | D
Формат субтитров: softsub (SRT)

Авторизуйтесь для получения доступа к скачиванию

Нет аккаунта? Регистрация открыта и займёт меньше минуты

Вход Регистрация

General
Unique ID : 57419652891739492803134580585674266636 (0x2B329F75B8F34CEFAC19709E87F3580C)
Complete name : I:Guillermo.del.Toros.Pinocchio.2022.BDRip.x264.seleZen.mkv
Format : Matroska
Format version : Version 4
File size : 1.46 GiB
Duration : 1 h 57 min
Overall bit rate : 1 779 kb/s
Frame rate : 23.976 FPS
Movie name : Guillermo.del.Toros.Pinocchio.2022.BDRip.x264.seleZen
Encoded date : 2023-12-10 21:16:53 UTC
Writing application : mkvmerge v81.0 ('Milliontown') 64-bit
Writing library : libebml v1.4.4 + libmatroska v1.7.1
Cover : Yes
Attachments : cover.jpg / small_cover.jpg

Video
ID : 1
Format : AVC
Format/Info : Advanced Video Codec
Format profile : [email protected]
Format settings : CABAC / 14 Ref Frames
Format settings, CABAC : Yes
Format settings, Reference : 14 frames
Codec ID : V_MPEG4/ISO/AVC
Duration : 1 h 57 min
Bit rate : 1 393 kb/s
Width : 1 024 pixels
Height : 554 pixels
Display aspect ratio : 1.85:1
Frame rate mode : Constant
Frame rate : 23.976 (24000/1001) FPS
Color space : YUV
Chroma subsampling : 4:2:0
Bit depth : 8 bits
Scan type : Progressive
Bits/(Pixel*Frame) : 0.102
Stream size : 1.15 GiB (78%)
Title : -=DoMiNo=-
Writing library : x264 core 164 r3172 -DoMiNo
Encoding settings : cabac=1 / ref=14 / deblock=1:-1:-1 / analyse=0x3:0x133 / me=umh / subme=10 / psy=1 / psy_rd=1.01:0.03 / mixed_ref=1 / me_range=32 / chroma_me=1 / trellis=2 / 8x8dct=1 / cqm=0 / deadzone=21,11 / fast_pskip=0 / chroma_qp_offset=-3 / threads=17 / lookahead_threads=4 / sliced_threads=0 / nr=0 / decimate=0 / interlaced=0 / bluray_compat=0 / constrained_intra=0 / bframes=12 / b_pyramid=2 / b_adapt=2 / b_bias=0 / direct=3 / weightb=1 / open_gop=0 / weightp=2 / keyint=250 / keyint_min=23 / scenecut=40 / intra_refresh=0 / rc_lookahead=60 / rc=2pass / mbtree=0 / bitrate=1393 / ratetol=1.0 / qcomp=0.80 / qpmin=0 / qpmax=69 / qpstep=4 / cplxblur=20.0 / qblur=0.5 / vbv_maxrate=50000 / vbv_bufsize=62500 / nal_hrd=none / filler=0 / ip_ratio=1.18 / pb_ratio=1.36 / aq=2:0.90
Language : English
Default : Yes
Forced : No

Audio
ID : 2
Format : AC-3
Format/Info : Audio Coding 3
Commercial name : Dolby Digital
Codec ID : A_AC3
Duration : 1 h 57 min
Bit rate mode : Constant
Bit rate : 384 kb/s
Channel(s) : 6 channels
Channel layout : L R C LFE Ls Rs
Sampling rate : 48.0 kHz
Frame rate : 31.250 FPS (1536 SPF)
Compression mode : Lossy
Stream size : 323 MiB (22%)
Title : Dub_Red Head Sound
Language : Russian
Service kind : Complete Main
Default : Yes
Forced : No

Text #1
ID : 3
Format : UTF-8
Codec ID : S_TEXT/UTF8
Codec ID/Info : UTF-8 Plain Text
Duration : 1 h 47 min
Bit rate : 0 b/s
Frame rate : 0.002 FPS
Count of elements : 14
Stream size : 473 Bytes (0%)
Title : Forced
Language : Russian
Default : No
Forced : No

Text #2
ID : 4
Format : UTF-8
Codec ID : S_TEXT/UTF8
Codec ID/Info : UTF-8 Plain Text
Duration : 1 h 56 min
Bit rate : 79 b/s
Frame rate : 0.215 FPS
Count of elements : 1503
Stream size : 67.5 KiB (0%)
Title : Full
Language : Russian
Default : No
Forced : No

Text #3
ID : 5
Format : UTF-8
Codec ID : S_TEXT/UTF8
Codec ID/Info : UTF-8 Plain Text
Duration : 1 h 48 min
Bit rate : 45 b/s
Frame rate : 0.209 FPS
Count of elements : 1364
Stream size : 36.6 KiB (0%)
Title : Full
Language : English
Default : No
Forced : No

Text #4
ID : 6
Format : UTF-8
Codec ID : S_TEXT/UTF8
Codec ID/Info : UTF-8 Plain Text
Duration : 1 h 56 min
Bit rate : 66 b/s
Frame rate : 0.288 FPS
Count of elements : 2017
Stream size : 56.9 KiB (0%)
Title : SDH
Language : English
Default : No
Forced : No

Text #5
ID : 7
Format : UTF-8
Codec ID : S_TEXT/UTF8
Codec ID/Info : UTF-8 Plain Text
Duration : 1 h 56 min
Bit rate : 51 b/s
Frame rate : 0.206 FPS
Count of elements : 1440
Stream size : 43.8 KiB (0%)
Language : French
Default : No
Forced : No

Text #6
ID : 8
Format : UTF-8
Codec ID : S_TEXT/UTF8
Codec ID/Info : UTF-8 Plain Text
Duration : 1 h 56 min
Bit rate : 51 b/s
Frame rate : 0.213 FPS
Count of elements : 1486
Stream size : 43.8 KiB (0%)
Title : Latin American
Language : Spanish
Default : No
Forced : No

Text #7
ID : 9
Format : UTF-8
Codec ID : S_TEXT/UTF8
Codec ID/Info : UTF-8 Plain Text
Duration : 1 h 56 min
Bit rate : 51 b/s
Frame rate : 0.224 FPS
Count of elements : 1564
Stream size : 44.3 KiB (0%)
Title : Castilian
Language : Spanish
Default : No
Forced : No

Menu
00:00:00.000 : en:"My Son"
00:06:08.410 : en:Going To Town
00:11:26.686 : en:Geppetto's Creature
00:18:42.747 : en:"Everything Is New to Me"
00:24:31.887 : en:"Who controls you?"
00:33:13.283 : en:"We Were a King Once"
00:36:41.825 : en:"Sign here, here, and here"
00:42:11.946 : en:The Carnival
00:49:01.814 : en:Death's Door
00:54:38.525 : en:A Burden
01:01:39.154 : en:"Ciao Papa"
01:05:21.417 : en:Out At Sea
01:12:45.570 : en:Il Dulce
01:16:38.594 : en:The Perfect Soldier
01:21:17.164 : en:War Games
01:30:01.438 : en:Reunited
01:38:43.793 : en:Pinocchio's Choice
01:47:13.510 : en:Epilogue
01:49:16.425 : en:"Better Tomorrows"

Другие фильмы
У данной публикации пока нет комментариев.
Будь первым, оставь своё мнение в комментариях!
Информация
Посетители, находящиеся в группе Гости, не могут оставлять комментарии к данной публикации.
Самый популярный релиз недели
Донаты
Мы в соц. сетях / RSS

Лучшие релизы месяца
Лучшие SD недели
Лучшие 720p недели
Лучшие 1080p недели
Лучшие 4K недели
Вы недавно смотрели
Реклама
Последние комментарии
...

korelov

23 февраля 2024 14:35

...

Desol

21 февраля 2024 00:28

...

diabloq

20 февраля 2024 14:17

...

slightlymad

17 февраля 2024 21:01

...

takezi

15 февраля 2024 22:10

Реклама