+5

Достать ножи: Стеклянная луковица / Glass Onion: A Knives Out Mystery (2022) WEB-DL 720p от DoMiNo & селезень | D

Информация о фильме
Название: Достать ножи: Стеклянная луковица
Оригинальное название: Glass Onion: A Knives Out Mystery
Год выхода: 2022
Жанр: детектив, комедия, криминал
Режиссер: Райан Джонсон
В ролях: Дэниэл Крэйг, Эдвард Нортон, Жанель Моне, Кэтрин Хан, Лесли Одом мл., Кейт Хадсон, Дэйв Батиста, Джессика Хенвик, Мэдлин Клайн, Ноа Сеган

О фильме:
Новое расследование сыщика Бенуа Бланка будет происходить на частном острове в Греции. Миллиардер Майлз Брон приглашает к себе разношёрстную компанию друзей. Вскоре на вечеринке происходит убийство.

Страна: США
Студия: Netflix, T-Street
Продолжительность: 02:21:02
Перевод: Дубляж (неофициальный) - Red Head Sound
Субтитры: Русские (Forced, Full), английские

Файл
Формат: Matroska
Качество: WEB-DL 720p
Видео: 1280x720 at 23.976 fps, [email protected], ~2875 kbps
Аудио: AC3, 6 ch, ~448 kbps - | Русский | Достать ножи: Стеклянная луковица / Glass Onion: A Knives Out Mystery (2022) WEB-DL 720p от DoMiNo & селезень | D
Формат субтитров: softsub (SRT)

Достать ножи: Стеклянная луковица / Glass Onion: A Knives Out Mystery (2022) WEB-DL 720p от DoMiNo & селезень | D

Авторизуйтесь для получения доступа к скачиванию

Нет аккаунта? Регистрация открыта и займёт меньше минуты

Вход Регистрация

General
Unique ID : 340189098325597508048690141111311603623 (0xFFEE0980D2BDE8751CD434CDCDDF17A7)
Complete name : D:Glass.Onion.A.Knives.Out.Mystery.2022.NF.WEB-DL.720p.x264.seleZen.mkv
Format : Matroska
Format version : Version 4
File size : 3.28 GiB
Duration : 2 h 21 min
Overall bit rate mode : Variable
Overall bit rate : 3 326 kb/s
Movie name : Glass.Onion.A.Knives.Out.Mystery.2022.NF.WEB-DL.720p.x264.seleZen
Encoded date : UTC 24.01.2023 10:54:59
Writing application : mkvmerge v73.0.0 ('25 or 6 to 4') 64-bit
Writing library : libebml v1.4.4 + libmatroska v1.7.1
Cover : Yes
Attachments : cover.jpg / small_cover.jpg

Video
ID : 1
Format : AVC
Format/Info : Advanced Video Codec
Format profile : [email protected]
Format settings : CABAC / 3 Ref Frames
Format settings, CABAC : Yes
Format settings, Reference : 3 frames
Codec ID : V_MPEG4/ISO/AVC
Duration : 2 h 21 min
Bit rate mode : Variable
Bit rate : 2 875 kb/s
Nominal bit rate : 2 119 kb/s
Maximum bit rate : 6 030 kb/s
Width : 1 280 pixels
Height : 720 pixels
Display aspect ratio : 16:9
Frame rate mode : Constant
Frame rate : 24.000 FPS
Color space : YUV
Chroma subsampling : 4:2:0
Bit depth : 8 bits
Scan type : Progressive
Bits/(Pixel*Frame) : 0.130
Stream size : 2.83 GiB (86%)
Title : -=DoMiNo=-
Writing library : x264 core 148 r2727 7d026e8
Encoding settings : cabac=1 / ref=3 / deblock=1:0:0 / analyse=0×1:0×111 / me=umh / subme=10 / psy=1 / psy_rd=1.00:0.00 / mixed_ref=1 / me_range=24 / chroma_me=1 / trellis=2 / 8×8dct=0 / cqm=0 / deadzone=21,11 / fast_pskip=1 / chroma_qp_offset=-2 / threads=8 / lookahead_threads=1 / sliced_threads=0 / nr=0 / decimate=1 / interlaced=0 / bluray_compat=0 / stitchable=1 / constrained_intra=0 / bframes=2 / b_pyramid=0 / b_adapt=2 / b_bias=0 / direct=3 / weightb=1 / open_gop=0 / weightp=2 / keyint=250 / keyint_min=24 / scenecut=0 / intra_refresh=0 / rc_lookahead=48 / rc=2pass / mbtree=1 / bitrate=2119 / ratetol=1.0 / qcomp=0.50 / qpmin=6 / qpmax=51 / qpstep=4 / cplxblur=20.0 / qblur=0.5 / vbv_maxrate=6030 / vbv_bufsize=8040 / nal_hrd=vbr / filler=0 / ip_ratio=1.40 / aq=1:1.00
Language : English
Default : Yes
Forced : No

Audio
ID : 2
Format : AC-3
Format/Info : Audio Coding 3
Commercial name : Dolby Digital
Codec ID : A_AC3
Duration : 2 h 21 min
Bit rate mode : Constant
Bit rate : 448 kb/s
Channel (s) : 6 channels
Channel layout : L R C LFE Ls Rs
Sampling rate : 48.0 kHz
Frame rate : 31.250 FPS (1536 SPF)
Compression mode : Lossy
Stream size : 452 MiB (13%)
Title : DUB_[Red Head Sound]
Language : Russian
Service kind : Complete Main
Default : Yes
Forced : Yes

Text #1
ID : 3
Format : UTF-8
Codec ID : S_TEXT/UTF8
Codec ID/Info : UTF-8 Plain Text
Duration : 2 h 7 min
Bit rate : 1 b/s
Frame rate : 0.006 FPS
Count of elements : 44
Stream size : 1.77 KiB (0%)
Title : Forced
Language : Russian
Default : Yes
Forced : No

Text #2
ID : 4
Format : UTF-8
Codec ID : S_TEXT/UTF8
Codec ID/Info : UTF-8 Plain Text
Duration : 2 h 18 min
Bit rate : 105 b/s
Frame rate : 0.238 FPS
Count of elements : 1984
Stream size : 107 KiB (0%)
Title : Full
Language : Russian
Default : No
Forced : No

Text #3
ID : 5
Format : UTF-8
Codec ID : S_TEXT/UTF8
Codec ID/Info : UTF-8 Plain Text
Duration : 2 h 10 min
Bit rate : 76 b/s
Frame rate : 0.263 FPS
Count of elements : 2057
Stream size : 73.4 KiB (0%)
Title : Full
Language : English
Default : No
Forced : No

Text #4
ID : 6
Format : UTF-8
Codec ID : S_TEXT/UTF8
Codec ID/Info : UTF-8 Plain Text
Duration : 2 h 13 min
Bit rate : 85 b/s
Frame rate : 0.292 FPS
Count of elements : 2340
Stream size : 83.7 KiB (0%)
Title : SDH
Language : English
Default : No
Forced : No

Menu
02:12:41.000 : en:End Credits

Другие фильмы
У данной публикации пока нет комментариев.
Будь первым, оставь своё мнение в комментариях!
Информация
Посетители, находящиеся в группе Гости, не могут оставлять комментарии к данной публикации.
Самый популярный релиз недели

Кино копилка
...
Какую тему вы используете?

Реклама
Последние комментарии
...

rmzshka

Вчера, 14:23

...

Rograr

25 января 2023 21:12

...

-=DoMiNo=-

20 января 2023 16:26

...

redbol

20 января 2023 14:27

...

Robot

19 января 2023 14:28

Реклама