+8

С Днём святого Валентина, Чарли Браун / Be My Valentine, Charlie Brown (1975) WEB-DLRip 720p от DoMiNo & селезень | D

Информация о фильме
Название: С Днём святого Валентина, Чарли Браун
Оригинальное название: Be My Valentine, Charlie Brown
Жанр: мультфильм, короткометражка, мелодрама, комедия, семейный
Год выпуска: 1975
Режиссер: Фил Роман / Phil Roman
Роли озвучивали: Дункан Уотсон, Стефен Ши, Мелани Кон, Грег Фелтон, Линн Мортенсен, Линда Эрколи, Билл Мелендес

Описание:
В школе отмечают День всех влюблённых, и Чарли Браун с нетерпением ждёт валентинок. Его друг Лайнус готовит подарок для учительницы, а Салли по ошибке думает, что шоколадное сердце — для неё.

Страна: США
Продолжительность: 00:25:13
Перевод: Профессиональный (дублированный) | Пифагор
Субтитры: Русские (Forced, Full, SDH), английские (Full, SDH)

Файл
Формат: Matroska
Качество: WEB-DLRip 720p
Видео: 960x720 at 23.976 fps, [email protected], ~2695 kbps
Аудио: AC3, 6 ch, ~384 kbps - | Русский | С Днём святого Валентина, Чарли Браун / Be My Valentine, Charlie Brown (1975) WEB-DLRip 720p от DoMiNo & селезень | D
Формат субтитров: softsub (SRT)

С Днём святого Валентина, Чарли Браун / Be My Valentine, Charlie Brown (1975) WEB-DLRip 720p от DoMiNo & селезень | D

Авторизуйтесь для получения доступа к скачиванию

Нет аккаунта? Регистрация открыта и займёт меньше минуты

Вход Регистрация

x264 [info]: frame I:237 Avg QP:20.77 size: 61738
x264 [info]: frame P:7847 Avg QP:21.38 size: 27724
x264 [info]: frame B:28192 Avg QP:22.69 size: 9846
x264 [info]: consecutive B-frames: 1,2% 1,6% 7,7% 35,7% 18,1% 17,4% 4,5% 9,3% 1,4% 1,0% 0,6% 1,1% 0,2%

General
Unique ID : 263660004445335088507761419052208508695 (0xC65B11DC6FEA473CD3FE981F05264F17)
Complete name : B:Be.My.Valentine.Charlie.Brown.1975.ATVP.WEB-DLRip.x264.seleZen.mkv
Format : Matroska
Format version : Version 4
File size : 556 MiB
Duration : 25 min 13 s
Overall bit rate : 3 083 kb/s
Movie name : Be.My.Valentine.Charlie.Brown.1975.ATVP.WEB-DLRip.x264.seleZen
Encoded date : UTC 11.02.2023 11:30:05
Writing application : mkvmerge v73.0.0 ('25 or 6 to 4') 64-bit
Writing library : libebml v1.4.4 + libmatroska v1.7.1
Cover : Yes
Attachments : cover.jpg / small_cover.jpg

Video
ID : 1
Format : AVC
Format/Info : Advanced Video Codec
Format profile : [email protected]
Format settings : CABAC / 12 Ref Frames
Format settings, CABAC : Yes
Format settings, Reference : 12 frames
Codec ID : V_MPEG4/ISO/AVC
Duration : 25 min 13 s
Bit rate : 2 695 kb/s
Width : 960 pixels
Height : 720 pixels
Display aspect ratio : 4:3
Frame rate mode : Constant
Frame rate : 23.976 (24000/1001) FPS
Color space : YUV
Chroma subsampling : 4:2:0
Bit depth : 8 bits
Scan type : Progressive
Bits/(Pixel*Frame) : 0.163
Stream size : 486 MiB (87%)
Title : -=DoMiNo=-
Writing library : x264 core 164 r3099+55M 141af3f t_mod_New | by -=DoMiNo=- | X86_64
Encoding settings : cabac=1 / ref=12 / deblock=1:-2:-1 / analyse=0×3:0×133 / me=umh / subme=10 / psy=1 / fade_compensate=0.00 / psy_rd=1.00:0.20 / mixed_ref=1 / me_range=32 / chroma_me=1 / trellis=2 / 8×8dct=1 / cqm=0 / deadzone=21,11 / fast_pskip=0 / chroma_qp_offset=-3 / threads=22 / lookahead_threads=5 / sliced_threads=0 / nr=0 / decimate=0 / interlaced=0 / bluray_compat=0 / constrained_intra=0 / fgo=0 / bframes=12 / b_pyramid=2 / b_adapt=2 / b_bias=0 / direct=1 / weightb=1 / open_gop=0 / weightp=2 / keyint=240 / keyint_min=23 / scenecut=40 / intra_refresh=0 / rc_lookahead=60 / rc=crf / mbtree=0 / crf=21.0000 / qcomp=0.70 / qpmin=0:0:0 / qpmax=69:69:69 / qpstep=4 / vbv_maxrate=50000 / vbv_bufsize=62500 / crf_max=0.0 / nal_hrd=none / filler=0 / ip_ratio=1.20 / pb_ratio=1.30 / aq=1:1.00 / aq-sensitivity=10.00 / aq-factor=1.00:1.00:1.00 / aq2=0 / aq3=0
Language : English
Default : Yes
Forced : No
Color range : Limited
Matrix coefficients : BT.709

Audio
ID : 2
Format : AC-3
Format/Info : Audio Coding 3
Commercial name : Dolby Digital
Codec ID : A_AC3
Duration : 25 min 13 s
Bit rate mode : Constant
Bit rate : 384 kb/s
Channel (s) : 6 channels
Channel layout : L R C LFE Ls Rs
Sampling rate : 48.0 kHz
Frame rate : 31.250 FPS (1536 SPF)
Compression mode : Lossy
Stream size : 69.3 MiB (12%)
Title : DUB
Language : Russian
Service kind : Complete Main
Default : Yes
Forced : Yes

Text #1
ID : 3
Format : UTF-8
Codec ID : S_TEXT/UTF8
Codec ID/Info : UTF-8 Plain Text
Duration : 24 min 3 s
Bit rate : 5 b/s
Frame rate : 0.017 FPS
Count of elements : 24
Stream size : 939 Bytes (0%)
Title : Forced
Language : Russian
Default : Yes
Forced : No

Text #2
ID : 4
Format : UTF-8
Codec ID : S_TEXT/UTF8
Codec ID/Info : UTF-8 Plain Text
Duration : 25 min 3 s
Bit rate : 88 b/s
Frame rate : 0.207 FPS
Count of elements : 311
Stream size : 16.2 KiB (0%)
Language : Russian
Default : No
Forced : No

Text #3
ID : 5
Format : UTF-8
Codec ID : S_TEXT/UTF8
Codec ID/Info : UTF-8 Plain Text
Duration : 25 min 1 s
Bit rate : 104 b/s
Frame rate : 0.235 FPS
Count of elements : 353
Stream size : 19.1 KiB (0%)
Title : SDH
Language : Russian
Default : No
Forced : No

Text #4
ID : 6
Format : UTF-8
Codec ID : S_TEXT/UTF8
Codec ID/Info : UTF-8 Plain Text
Duration : 24 min 20 s
Bit rate : 55 b/s
Frame rate : 0.195 FPS
Count of elements : 285
Stream size : 9.88 KiB (0%)
Language : English
Default : No
Forced : No

Text #5
ID : 7
Format : UTF-8
Codec ID : S_TEXT/UTF8
Codec ID/Info : UTF-8 Plain Text
Duration : 24 min 59 s
Bit rate : 59 b/s
Frame rate : 0.221 FPS
Count of elements : 332
Stream size : 10.8 KiB (0%)
Title : SDH
Language : English
Default : No
Forced : No

Menu
00:00:00.000 : en:Глава 01
00:05:50.000 : en:Глава 02
00:11:40.000 : en:Глава 03
00:17:30.000 : en:Глава 04
00:23:20.000 : en:Глава 05

Другие фильмы
У данной публикации пока нет комментариев.
Будь первым, оставь своё мнение в комментариях!
Информация
Посетители, находящиеся в группе Гости, не могут оставлять комментарии к данной публикации.
Самый популярный релиз недели
Донаты
Мы в соц. сетях / RSS

Лучшие релизы месяца
Лучшие SD недели
Лучшие 720p недели
Лучшие 1080p недели
Лучшие 4K недели
Вы недавно смотрели
Реклама
Последние комментарии
...

Tony1984

Вчера, 14:36

...

bolonka123

19 апреля 2024 10:05

...

Sergunka

17 апреля 2024 23:31

...

-=DoMiNo=-

17 апреля 2024 13:52

...

bolonka123

17 апреля 2024 11:43

Реклама