+8

Дитя тьмы / Дитя тьмы. Экзорцизм / Huesera (2022) BDRip 720p от DoMiNo & селезень | D

Информация о фильме
Название: Дитя тьмы / Дитя тьмы. Экзорцизм
Оригинальное название: Huesera
Год выхода: 2022
Жанр: Ужасы, драма
Режиссер: Мишель Гарса Сервера
В ролях: Наталия Солан, Альфонсо Досаль, Майра Баталья, Мерседес Эрнандес, Соня Ку, Аида Лопес, Анаи Аллуэ, Марта Клаудия Морено, Эмильрам Коссио, Норма Рейна Брито

О фильме:
Валери беременна. Но ее безмерная радость внезапно сменяется тревогой и ожиданием чего-то зловещего. Будто что-то затаилось у нее во чреве и ждет своего часа. Друзья считают, что во всем виноваты гормоны, и с рождением малыша проблема уйдет. Но с каждым днем ее кости хрустят все сильнее, спину буквально разрывает на части, а сон напоминает бесконечный кошмар. И то, что вселилось в нее, никуда уходить не собирается.

Страна: Мексика, Перу
Студия: Disruptiva Films, Machete Producciones, Maligno Gorehouse, Terminal
Продолжительность: 01:37:14
Перевод: Дублированный | Кинопоиск HD | Pride Production
Субтитры: Русские (Forced, Full), Английские

Файл
Формат: Matroska
Качество: BDRip 720p
Видео: 1280x692 at 23,976 fps, [email protected], ~4904 kbps
Аудио 1: AC3, 6 ch, ~448 kbps - | Русский | Дитя тьмы / Дитя тьмы. Экзорцизм / Huesera (2022) BDRip 720p от DoMiNo & селезень | D
Аудио 2: E-AC3, 6 ch, ~448 kbps - | Русский |
Аудио 3: AC3, 6 ch, ~640 kbps - | Английский |
Формат субтитров: softsub (SRT)

*** В русском дубляже (WEBDL) отсутствуют несколько сцен по сравнению с Blu-ray, диалоги присутствуют только в одной сцене (пару фраз), переведено русскими форсированными субтитрами (tnx. stillet)

Авторизуйтесь для получения доступа к скачиванию

Нет аккаунта? Регистрация открыта и займёт меньше минуты

Вход Регистрация

General
Unique ID: 303485728757726095757893252319043559075 (0xE45139AB5A05E0E89514E3F499769EA3)
Complete name: S: Huesera.2022.DUB.BDRip.720p.x264.seleZen.mkv
Format: Matroska
Format version: Version 4
File size: 4.38 GiB
Duration: 1 h 37 min
Overall bit rate: 6 443 kb/s
Frame rate: 23.976 FPS
Movie name: Huesera.2022.DUB.BDRip.720p.x264.seleZen
Encoded date: 12.04.2024 11:18:45 UTC
Writing application: mkvmerge v83.0 ('Circle Of Friends') 64-bit
Writing library: libebml v1.4.5 + libmatroska v1.7.1
Cover: Yes
Attachments: cover.jpg / small_cover.jpg

Video
ID: 1
Format: AVC
Format/Info: Advanced Video Codec
Format profile: [email protected]
Format settings: CABAC / 9 Ref Frames
Format settings, CABAC: Yes
Format settings, Reference: 9 frames
Codec ID: V_MPEG4/ISO/AVC
Duration: 1 h 37 min
Bit rate: 4 904 kb/s
Width: 1 280 pixels
Height: 692 pixels
Display aspect ratio: 1.85:1
Frame rate mode: Constant
Frame rate: 23.976 (24000/1001) FPS
Color space: YUV
Chroma subsampling: 4:2:0
Bit depth: 8 bits
Scan type: Progressive
Bits/(Pixel*Frame): 0.231
Stream size: 3.33 GiB (76%)
Title: -=DoMiNo=-
Writing library: x264 core 164 r3190 -DoMiNo
Encoding settings: cabac=1 / ref=9 / deblock=1:-2:-2 / analyse=0×3:0×133 / me=umh / subme=10 / psy=1 / psy_rd=1.03:0.05 / mixed_ref=1 / me_range=32 / chroma_me=1 / trellis=2 / 8×8dct=1 / cqm=0 / deadzone=21,11 / fast_pskip=0 / chroma_qp_offset=-3 / threads=22 / lookahead_threads=5 / sliced_threads=0 / nr=0 / decimate=0 / interlaced=0 / bluray_compat=0 / constrained_intra=0 / bframes=10 / b_pyramid=2 / b_adapt=2 / b_bias=0 / direct=1 / weightb=1 / open_gop=0 / weightp=2 / keyint=240 / keyint_min=23 / scenecut=40 / intra_refresh=0 / rc_lookahead=60 / rc=crf / mbtree=0 / crf=16.5 / qcomp=0.60 / qpmin=0 / qpmax=69 / qpstep=4 / vbv_maxrate=50000 / vbv_bufsize=62500 / crf_max=0.0 / nal_hrd=none / filler=0 / ip_ratio=1.40 / pb_ratio=1.30 / aq=3:0.90
Language: English
Default: Yes
Forced: No
Color range: Limited
Color primaries: BT.709
Transfer characteristics: BT.709
Matrix coefficients: BT.709

Audio #1
ID: 2
Format: AC-3
Format/Info: Audio Coding 3
Commercial name: Dolby Digital
Codec ID: A_AC3
Duration: 1 h 37 min
Bit rate mode: Constant
Bit rate: 448 kb/s
Channel (s): 6 channels
Channel layout: L R C LFE Ls Rs
Sampling rate: 48.0 kHz
Frame rate: 31.250 FPS (1536 SPF)
Compression mode: Lossy
Stream size: 312 MiB (7%)
Title: DUB -Pride Production
Language: Russian
Service kind: Complete Main
Default: Yes
Forced: No
AC3_metadata cmixlev: -3.0 dB
surmixlev: -3 dB

Audio #2
ID: 3
Format: E-AC-3
Format/Info: Enhanced AC-3
Commercial name: Dolby Digital Plus
Codec ID: A_EAC3
Duration: 1 h 37 min
Bit rate mode: Constant
Bit rate: 448 kb/s
Channel (s): 6 channels
Channel layout: L R C LFE Ls Rs
Sampling rate: 48.0 kHz
Frame rate: 31.250 FPS (1536 SPF)
Compression mode: Lossy
Stream size: 312 MiB (7%)
Title: DUB -Pride Production
Language: Russian
Service kind: Complete Main
Default: No
Forced: No

Audio #3
ID: 4
Format: AC-3
Format/Info: Audio Coding 3
Commercial name: Dolby Digital
Codec ID: A_AC3
Duration: 1 h 37 min
Bit rate mode: Constant
Bit rate: 640 kb/s
Channel (s): 6 channels
Channel layout: L R C LFE Ls Rs
Sampling rate: 48.0 kHz
Frame rate: 31.250 FPS (1536 SPF)
Compression mode: Lossy
Stream size: 445 MiB (10%)
Title: Original
Language: Spanish
Service kind: Complete Main
Default: No
Forced: No
AC3_metadata cmixlev: -4.5 dB
surmixlev: -6 dB

Text #1
ID: 5
Format: UTF-8
Codec ID: S_TEXT/UTF8
Codec ID/Info: UTF-8 Plain Text
Duration: 23 s 566 ms
Bit rate: 16 b/s
Frame rate: 0.085 FPS
Count of elements: 2
Stream size: 49.0 Bytes (0%)
Title: Forced
Language: Russian
Default: No
Forced: No

Text #2
ID: 6
Format: UTF-8
Codec ID: S_TEXT/UTF8
Codec ID/Info: UTF-8 Plain Text
Duration: 1 h 29 min
Bit rate: 37 b/s
Frame rate: 0.120 FPS
Count of elements: 640
Stream size: 24.3 KiB (0%)
Title: Full
Language: Russian
Default: No
Forced: No

Text #3
ID: 7
Format: UTF-8
Codec ID: S_TEXT/UTF8
Codec ID/Info: UTF-8 Plain Text
Duration: 1 h 28 min
Bit rate: 25 b/s
Frame rate: 0.115 FPS
Count of elements: 611
Stream size: 16.2 KiB (0%)
Title: Full
Language: English
Default: No
Forced: No

Menu
00:00:00.000: en: Chapter 1
00:06:32.809: en: Chapter 2
00:16:00.626: en: Chapter 3
00:22:45.155: en: Chapter 4
00:30:18.733: en: Chapter 5
00:40:57.121: en: Chapter 6
00:46:10.517: en: Chapter 7
00:55:38.043: en: Chapter 8
01:02:21.070: en: Chapter 9
01:14:00.102: en: Chapter 10
01:23:42.642: en: Chapter 11
01:28:23.423: en: Chapter 12
01:37:14.245: en: Chapter 13

Другие фильмы
У данной публикации пока нет комментариев.
Будь первым, оставь своё мнение в комментариях!
Информация
Посетители, находящиеся в группе Гости, не могут оставлять комментарии к данной публикации.
Самый популярный релиз недели
Донаты
Мы в соц. сетях / RSS

Лучшие релизы месяца
Лучшие SD недели
Лучшие 720p недели
Лучшие 1080p недели
Лучшие 4K недели
Вы недавно смотрели
Реклама
Последние комментарии
...

rmzshka

15 мая 2024 13:43

...

Andrey_Vladimirovich

13 мая 2024 18:12

...

Robot

13 мая 2024 16:53

...

rmzshka

13 мая 2024 16:21

...

supermehanik

13 мая 2024 02:03

Реклама