+42

Укрытие / Бункер / Silo [01x01-10 из 10] (2023) WEB-DLRip-AVC от DoMiNo & селезень | D

Информация о фильме
Название: Укрытие / Бункер
Оригинальное название: Silo
Год выпуска: 2023
Жанр: фантастика, драма, триллер
Режиссер: Мортен Тильдум, Дэвид Семел
В ролях: Ребекка Фергюсон, Рашида Джонс, Дэвид Ойелоуо, Коммон, Тим Роббинс, Иэн Глен, Харриет Уолтер, Чиназа Уче, Эви Нэш, Фердинанд Кингсли, Шэйн МакРей, Мэтт Гомез Хидака, Рик Гомес, Ли Драдж, Генри Гаррет

О фильме:
В недалёком будущем выжившие 10 тысяч человек живут в огромном бункере глубиной в 144 этажа. Люди верят, что мир мёртв, воздух снаружи отравлен и выходить на поверхность смертельно опасно. Всю информацию они получают с помощью огромных экранов, на которые транслируются изображения с внешних камер. День за днём глядя на безжизненный серый пейзаж, обитатели безропотно подчиняются устоявшимся правилам, главное из которых — никогда не выходить из бункера.

Страна: США
Студия: AMC Studios
Продолжительность: ~01:00:00 серия
Перевод: Профессиональный (дублированный) Невафильм по заказу Apple TV+
Субтитры: Russian (Forced, Full, SDH), English (Full, SDH)

Файл
Формат: Matroska
Качество: WEB-DLRip-AVC
Видео: 1024×512 at 23.976 fps, [email protected], ~1513 kbps
Аудио: AC3, 6 ch, ~384 kbps — | Русский | Укрытие / Бункер / Silo [01x01-10 из 10] (2023) WEB-DLRip-AVC от DoMiNo & селезень | D
Формат субтитров: softsub (SRT)

Укрытие / Бункер / Silo [01x01-10 из 10] (2023) WEB-DLRip-AVC от DoMiNo & селезень | D

Авторизуйтесь для получения доступа к скачиванию

Нет аккаунта? Регистрация открыта и займёт меньше минуты

Вход Регистрация

x264 [info]: frame I:660 Avg QP:14.29 size: 48431
x264 [info]: frame P:13648 Avg QP:15.47 size: 18804
x264 [info]: frame B:54427 Avg QP:17.40 size: 4660

General
Unique ID : 314971993691737337027397726630362004995 (0xECF5664101C3A8BB34906763099CBE03)
Complete name : D:VRMSilo.S01.ATVP.WEB-DLRip.x264.seleZenSilo.S01E02.Holstons.Pick.WEB-DLRip.x264.seleZen.mkv
Format : Matroska
Format version : Version 4
File size : 649 MiB
Duration : 47 min 46 s
Overall bit rate : 1 900 kb/s
Frame rate : 23.976 FPS
Movie name : seleZen
Encoded date : 05.05.2023 13:40:20 UTC
Writing application : mkvmerge v76.0 ('Celebration') 64-bit
Writing library : libebml v1.4.4 + libmatroska v1.7.1
Cover : Yes
Attachments : cover.jpg / small_cover.jpg

Video
ID : 1
Format : AVC
Format/Info : Advanced Video Codec
Format profile : [email protected]
Format settings : CABAC / 10 Ref Frames
Format settings, CABAC : Yes
Format settings, Reference : 10 frames
Codec ID : V_MPEG4/ISO/AVC
Duration : 47 min 46 s
Bit rate : 1 513 kb/s
Width : 1 024 pixels
Height : 512 pixels
Display aspect ratio : 2.000
Frame rate mode : Constant
Frame rate : 23.976 (24000/1001) FPS
Color space : YUV
Chroma subsampling : 4:2:0
Bit depth : 8 bits
Scan type : Progressive
Bits/(Pixel*Frame) : 0.120
Stream size : 517 MiB (80%)
Title : -=DoMiNo=-
Writing library : x264 core 164 r3107+55M 1028c06 t_mod_New [(8 & 10)-bit@all X86_64]
Encoding settings : cabac=1 / ref=10 / deblock=1:-2:-1 / analyse=0×3:0×133 / me=umh / subme=10 / psy=1 / fade_compensate=0.00 / psy_rd=1.02:0.15 / mixed_ref=1 / me_range=32 / chroma_me=1 / trellis=2 / 8×8dct=1 / cqm=0 / deadzone=21,11 / fast_pskip=0 / chroma_qp_offset=-3 / threads=17 / lookahead_threads=4 / sliced_threads=0 / nr=0 / decimate=1 / interlaced=0 / bluray_compat=0 / constrained_intra=0 / fgo=0 / bframes=10 / b_pyramid=2 / b_adapt=2 / b_bias=0 / direct=3 / weightb=1 / open_gop=0 / weightp=2 / keyint=240 / keyint_min=23 / scenecut=40 / intra_refresh=0 / rc_lookahead=60 / rc=crf / mbtree=0 / crf=18.5000 / qcomp=0.60 / qpmin=0:0:0 / qpmax=69:69:69 / qpstep=4 / vbv_maxrate=50000 / vbv_bufsize=62500 / crf_max=0.0 / nal_hrd=none / filler=0 / ip_ratio=1.30 / pb_ratio=1.25 / aq=1:0.90 / aq-sensitivity=10.00 / aq-factor=1.00:1.00:1.00 / aq2=0 / aq3=0
Language : English
Default : Yes
Forced : No
Color range : Limited
Color primaries : BT.709
Transfer characteristics : BT.709
Matrix coefficients : BT.709

Audio
ID : 2
Format : AC-3
Format/Info : Audio Coding 3
Commercial name : Dolby Digital
Codec ID : A_AC3
Duration : 47 min 46 s
Bit rate mode : Constant
Bit rate : 384 kb/s
Channel (s) : 6 channels
Channel layout : L R C LFE Ls Rs
Sampling rate : 48.0 kHz
Frame rate : 31.250 FPS (1536 SPF)
Compression mode : Lossy
Stream size : 131 MiB (20%)
Title : Dub
Language : Russian
Service kind : Complete Main
Default : Yes
Forced : Yes

Text #1
ID : 3
Format : UTF-8
Codec ID : S_TEXT/UTF8
Codec ID/Info : UTF-8 Plain Text
Duration : 36 min 3 s
Bit rate : 2 b/s
Frame rate : 0.005 FPS
Count of elements : 11
Stream size : 574 Bytes (0%)
Title : Forced
Language : Russian
Default : Yes
Forced : No

Text #2
ID : 4
Format : UTF-8
Codec ID : S_TEXT/UTF8
Codec ID/Info : UTF-8 Plain Text
Duration : 47 min 32 s
Bit rate : 71 b/s
Frame rate : 0.182 FPS
Count of elements : 520
Stream size : 25.0 KiB (0%)
Language : Russian
Default : No
Forced : No

Text #3
ID : 5
Format : UTF-8
Codec ID : S_TEXT/UTF8
Codec ID/Info : UTF-8 Plain Text
Duration : 46 min 20 s
Bit rate : 85 b/s
Frame rate : 0.215 FPS
Count of elements : 598
Stream size : 28.9 KiB (0%)
Title : SDH
Language : Russian
Default : No
Forced : No

Text #4
ID : 6
Format : UTF-8
Codec ID : S_TEXT/UTF8
Codec ID/Info : UTF-8 Plain Text
Duration : 46 min 10 s
Bit rate : 49 b/s
Frame rate : 0.183 FPS
Count of elements : 506
Stream size : 16.8 KiB (0%)
Language : English
Default : No
Forced : No

Text #5
ID : 7
Format : UTF-8
Codec ID : S_TEXT/UTF8
Codec ID/Info : UTF-8 Plain Text
Duration : 46 min 18 s
Bit rate : 57 b/s
Frame rate : 0.212 FPS
Count of elements : 590
Stream size : 19.6 KiB (0%)
Title : SDH
Language : English
Default : No
Forced : No

Другие фильмы
У данной публикации пока нет комментариев.
Будь первым, оставь своё мнение в комментариях!
Информация
Посетители, находящиеся в группе Гости, не могут оставлять комментарии к данной публикации.
Самый популярный релиз недели
Донаты
Мы в соц. сетях / RSS

Лучшие релизы месяца
Лучшие SD недели
Лучшие 720p недели
Лучшие 1080p недели
Лучшие 4K недели
Вы недавно смотрели
Реклама
Последние комментарии
...

fataxdd

16 июля 2024 07:13

...

Rustik99

12 июля 2024 10:11

...

Rograr

6 июля 2024 19:56

...

fenix

2 июля 2024 07:45

...

Fidelrus

28 июня 2024 13:53

Реклама