+12

Последняя сделка / The Last Deal (2023) WEB-DLRip 720p от DoMiNo & селезень | D, P

Информация о фильме
Название: Последняя сделка
Оригинальное название: The Last Deal
Год выпуска: 2023
Жанр: Боевик, триллер, криминал
Режиссер: Джонатан Салеми / Jonathan Salemi
В ролях: Сала Бейкер, Гиги Гастин, Энтони Молинари, Майк Фергюсон, София Массон, Коннер Флойд, Эддисон Боуман, Кенни Джонстон, Элиана Саенз, Линда Бурзински

О фильме:
После декриминализации марихуаны роскошной жизни Винсента приходит конец — он не может получить лицензию и начинает терять деньги. Вместе с партнером Бобби он решает заключить последнюю сделку, но преступники, с которыми они работают, крадут всю травку. Теперь Винсент и Бобби должны криминальному авторитету сто тысяч долларов.

Страна: США
Студия: Bohemia Group Originals, L.A.N.E. 38
Продолжительность: 01:30:54
Перевод #1: Дублированный | OKKO
Перевод #2: Профессиональный (многоголосый, закадровый) | TVShows
Перевод #3: Профессиональный (многоголосый, закадровый) | Jaskier | 18 +
Субтитры: Английские (full, SDH)

***В дубляже присутствуют вставки, с профессионального закадрового перевода, от TVShows. Работа над звуком: селезень.

Последняя сделка / The Last Deal (2023) WEB-DLRip 720p от DoMiNo & селезень | D, P

Авторизуйтесь для получения доступа к скачиванию

Нет аккаунта? Регистрация открыта и займёт меньше минуты

Вход Регистрация

x264 [info]: frame I:1134 Avg QP:15.35 size: 59476
x264 [info]: frame P:31930 Avg QP:16.74 size: 20501
x264 [info]: frame B:97722 Avg QP:18.98 size: 6290

General
Unique ID : 235874140720832012446215317028266016247 (0xB173B502AD1CDF7072F0077D179B7DF7)
Complete name : R:The.Last.Deal.2023.DUB.MVO.WEB-DLRip.720p.x264.seleZen.mkv
Format : Matroska
Format version : Version 4
File size : 1.86 GiB
Duration : 1 h 30 min
Overall bit rate : 2 924 kb/s
Frame rate : 23.976 FPS
Movie name : The.Last.Deal.2023.DUB.MVO.WEB-DLRip.720p.x264.seleZen
Encoded date : 2024-02-08 06:16:44 UTC
Writing application : mkvmerge v82.0 ('I'm The President') 64-bit
Writing library : libebml v1.4.5 + libmatroska v1.7.1
Cover : Yes
Attachments : cover.jpg / small_cover.jpg

Video
ID : 1
Format : AVC
Format/Info : Advanced Video Codec
Format profile : [email protected]
Format settings : CABAC / 8 Ref Frames
Format settings, CABAC : Yes
Format settings, Reference : 8 frames
Codec ID : V_MPEG4/ISO/AVC
Duration : 1 h 30 min
Bit rate : 1 960 kb/s
Width : 1 280 pixels
Height : 536 pixels
Display aspect ratio : 2.40:1
Frame rate mode : Constant
Frame rate : 23.976 (24000/1001) FPS
Color space : YUV
Chroma subsampling : 4:2:0
Bit depth : 8 bits
Scan type : Progressive
Bits/(Pixel*Frame) : 0.119
Stream size : 1.24 GiB (67%)
Title : -=DoMiNo=-
Writing library : x264 core 164 r3107+58M ae98796 t_mod_New | by -=DoMiNo=- | X86_64]
Encoding settings : cabac=1 / ref=8 / deblock=1:-2:-1 / analyse=0x3:0x133 / me=umh / subme=10 / psy=1 / fade_compensate=0.00 / psy_rd=1.02:0.15 / mixed_ref=1 / me_range=32 / chroma_me=1 / trellis=2 / 8x8dct=1 / cqm=0 / deadzone=21,11 / fast_pskip=0 / chroma_qp_offset=-3 / threads=17 / lookahead_threads=2 / sliced_threads=0 / nr=0 / decimate=1 / interlaced=0 / bluray_compat=0 / constrained_intra=0 / fgo=0 / bframes=9 / b_pyramid=2 / b_adapt=2 / b_bias=0 / direct=3 / weightb=1 / open_gop=0 / weightp=2 / keyint=240 / keyint_min=23 / scenecut=40 / intra_refresh=0 / rc_lookahead=60 / rc=crf / mbtree=0 / crf=20.0000 / qcomp=0.70 / qpmin=0:0:0 / qpmax=69:69:69 / qpstep=4 / vbv_maxrate=50000 / vbv_bufsize=62500 / crf_max=0.0 / nal_hrd=none / filler=0 / ip_ratio=1.35 / pb_ratio=1.25 / aq=3:0.90 / aq-sensitivity=10.00 / aq-factor=1.00:1.00:1.00:1.00 / aq2=0 / aq3=0
Language : English
Default : Yes
Forced : No
Color range : Limited
Color primaries : BT.709
Transfer characteristics : BT.709
Matrix coefficients : BT.709

Audio #1
ID : 2
Format : AC-3
Format/Info : Audio Coding 3
Commercial name : Dolby Digital
Codec ID : A_AC3
Duration : 1 h 30 min
Bit rate mode : Constant
Bit rate : 192 kb/s
Channel(s) : 2 channels
Channel layout : L R
Sampling rate : 48.0 kHz
Frame rate : 31.250 FPS (1536 SPF)
Compression mode : Lossy
Stream size : 125 MiB (7%)
Title : Dub_OKKO
Language : Russian
Service kind : Complete Main
Default : Yes
Forced : No

Audio #2
ID : 3
Format : AC-3
Format/Info : Audio Coding 3
Commercial name : Dolby Digital
Codec ID : A_AC3
Duration : 1 h 30 min
Bit rate mode : Constant
Bit rate : 384 kb/s
Channel(s) : 6 channels
Channel layout : L R C LFE Ls Rs
Sampling rate : 48.0 kHz
Frame rate : 31.250 FPS (1536 SPF)
Compression mode : Lossy
Stream size : 250 MiB (13%)
Title : MVO_TVShows
Language : Russian
Service kind : Complete Main
Default : No
Forced : No

Audio #3
ID : 4
Format : AC-3
Format/Info : Audio Coding 3
Commercial name : Dolby Digital
Codec ID : A_AC3
Duration : 1 h 30 min
Bit rate mode : Constant
Bit rate : 384 kb/s
Channel(s) : 6 channels
Channel layout : L R C LFE Ls Rs
Sampling rate : 48.0 kHz
Frame rate : 31.250 FPS (1536 SPF)
Compression mode : Lossy
Stream size : 250 MiB (13%)
Title : MVO_Jaskier
Language : Russian
Service kind : Complete Main
Default : No
Forced : No

Text #1
ID : 5
Format : UTF-8
Codec ID : S_TEXT/UTF8
Codec ID/Info : UTF-8 Plain Text
Duration : 1 h 26 min
Bit rate : 54 b/s
Frame rate : 0.224 FPS
Count of elements : 1158
Stream size : 34.3 KiB (0%)
Title : Full
Language : English (US)
Default : No
Forced : No

Text #2
ID : 6
Format : UTF-8
Codec ID : S_TEXT/UTF8
Codec ID/Info : UTF-8 Plain Text
Duration : 1 h 30 min
Bit rate : 71 b/s
Frame rate : 0.339 FPS
Count of elements : 1840
Stream size : 47.3 KiB (0%)
Title : SDH
Language : English (US)
Default : No
Forced : No

Menu
00:00:00.000 : en:Глава 01
00:11:40.000 : en:Глава 02
00:23:20.000 : en:Глава 03
00:35:00.000 : en:Глава 04
00:46:40.000 : en:Глава 05
00:58:20.000 : en:Глава 06
01:10:00.000 : en:Глава 07
01:21:40.000 : en:Глава 08

Другие фильмы
У данной публикации пока нет комментариев.
Будь первым, оставь своё мнение в комментариях!
Информация
Посетители, находящиеся в группе Гости, не могут оставлять комментарии к данной публикации.
Самый популярный релиз недели
Донаты
Мы в соц. сетях / RSS

Лучшие релизы месяца
Лучшие SD недели
Лучшие 720p недели
Лучшие 1080p недели
Лучшие 4K недели
Вы недавно смотрели
Реклама
Последние комментарии
...

korelov

23 февраля 2024 14:35

...

Desol

21 февраля 2024 00:28

...

diabloq

20 февраля 2024 14:17

...

slightlymad

17 февраля 2024 21:01

...

takezi

15 февраля 2024 22:10

Реклама