+6

97 минут / 97 Minutes (2023) BDRip-AVC от DoMiNo & селезень | P

Информация о фильме
Название: 97 минут
Оригинальное название: 97 Minutes
Год выхода: 2023
Жанр: Триллер
Режиссер: Тимо Вуоренсола
В ролях: Джонатан Риз Майерс, Алек Болдуин, МайАнна Беринг, Джо Мартин, Майкл Сироу, Паван Гроувер, Анжул Нигам, Питер Брук

О фильме:
Захваченный самолет 767 потерпит крушение всего через 97 минут, когда закончится топливо. Вопреки воле заместителя Тойин, директор АНБ Хокинс готовится сбить самолет до того, как он нанесет катастрофический ущерб на земле, оставляя судьбу невинных пассажиров в руках Алекса, агента Интерпола под прикрытием, внедренного в террористическую ячейку.

Страна: Великобритания, США, Канада
Студия: Black Hangar Studios, Black Lab, BondIt, Buffalo 8 Productions
Продолжительность: 01:33:49
Перевод: Профессиональный многоголосый | HDRezka Studio
Субтитры: Русские (Forced), английские

Файл
Формат: Matroska
Качество: BDRip-AVC
Видео: 1024x428 at 23.976 fps, [email protected], ~1783 kbps
Аудио: AC3, 6 ch, ~448 kbps - | Русский | 97 минут / 97 Minutes (2023) BDRip-AVC от DoMiNo & селезень | P
Формат субтитров: softsub (SRT)

Авторизуйтесь для получения доступа к скачиванию

Нет аккаунта? Регистрация открыта и займёт меньше минуты

Вход Регистрация

x264 [info]: frame I:1113 Avg QP:13.24 size: 48487
x264 [info]: frame P:30239 Avg QP:14.92 size: 18730
x264 [info]: frame B:103609 Avg QP:17.11 size: 6095

General
Unique ID : 189006877474819416050514379456021446325 (0x8E31668753142C5315582B8D2C72BEB5)
Complete name : I:97.Minutes.2023.MVO.BDRip.x264.seleZen.mkv
Format : Matroska
Format version : Version 4
File size : 1.46 GiB
Duration : 1 h 33 min
Overall bit rate : 2 229 kb/s
Frame rate : 23.976 FPS
Movie name : 97.Minutes.2023.MVO.BDRip.x264.seleZen
Encoded date : 2024-04-20 18:29:34 UTC
Writing application : mkvmerge v83.0 ('Circle Of Friends') 64-bit
Writing library : libebml v1.4.5 + libmatroska v1.7.1
Cover : Yes
Attachments : cover.jpg / small_cover.jpg

Video
ID : 1
Format : AVC
Format/Info : Advanced Video Codec
Format profile : [email protected]
Format settings : CABAC / 14 Ref Frames
Format settings, CABAC : Yes
Format settings, Reference : 14 frames
Codec ID : V_MPEG4/ISO/AVC
Duration : 1 h 33 min
Bit rate : 1 783 kb/s
Width : 1 024 pixels
Height : 428 pixels
Display aspect ratio : 2.39:1
Frame rate mode : Constant
Frame rate : 23.976 (24000/1001) FPS
Color space : YUV
Chroma subsampling : 4:2:0
Bit depth : 8 bits
Scan type : Progressive
Bits/(Pixel*Frame) : 0.170
Stream size : 1.17 GiB (80%)
Title : -=DoMiNo=-
Writing library : x264 core 164 r3190 -DoMiNo
Encoding settings : cabac=1 / ref=14 / deblock=1:-2:-2 / analyse=0x3:0x133 / me=umh / subme=10 / psy=1 / psy_rd=1.00:0.00 / mixed_ref=1 / me_range=32 / chroma_me=1 / trellis=2 / 8x8dct=1 / cqm=0 / deadzone=21,11 / fast_pskip=0 / chroma_qp_offset=-2 / threads=13 / lookahead_threads=3 / sliced_threads=0 / nr=0 / decimate=0 / interlaced=0 / bluray_compat=0 / constrained_intra=0 / bframes=10 / b_pyramid=2 / b_adapt=2 / b_bias=0 / direct=3 / weightb=1 / open_gop=0 / weightp=2 / keyint=240 / keyint_min=23 / scenecut=40 / intra_refresh=0 / rc_lookahead=60 / rc=2pass / mbtree=0 / bitrate=1783 / ratetol=1.0 / qcomp=0.60 / qpmin=0 / qpmax=69 / qpstep=4 / cplxblur=20.0 / qblur=0.5 / vbv_maxrate=50000 / vbv_bufsize=62500 / nal_hrd=none / filler=0 / ip_ratio=1.20 / pb_ratio=1.30 / aq=3:0.80
Language : English
Default : Yes
Forced : No
Color range : Limited
Color primaries : BT.709
Transfer characteristics : BT.709
Matrix coefficients : BT.709

Audio
ID : 2
Format : AC-3
Format/Info : Audio Coding 3
Commercial name : Dolby Digital
Codec ID : A_AC3
Duration : 1 h 33 min
Bit rate mode : Constant
Bit rate : 448 kb/s
Channel(s) : 6 channels
Channel layout : L R C LFE Ls Rs
Sampling rate : 48.0 kHz
Frame rate : 31.250 FPS (1536 SPF)
Compression mode : Lossy
Stream size : 301 MiB (20%)
Title : MVO -HDRezka Studio
Language : Russian
Service kind : Complete Main
Default : Yes
Forced : No
AC3_metadata cmixlev : -3.0 dB
surmixlev : -3 dB

Text #1
ID : 3
Format : UTF-8
Codec ID : S_TEXT/UTF8
Codec ID/Info : UTF-8 Plain Text
Duration : 1 h 16 min
Bit rate : 7 b/s
Frame rate : 0.012 FPS
Count of elements : 57
Stream size : 3.90 KiB (0%)
Title : Forced
Language : Russian
Default : No
Forced : No

Text #2
ID : 4
Format : UTF-8
Codec ID : S_TEXT/UTF8
Codec ID/Info : UTF-8 Plain Text
Duration : 1 h 25 min
Bit rate : 45 b/s
Frame rate : 0.235 FPS
Count of elements : 1202
Stream size : 28.6 KiB (0%)
Title : Full 1_eng
Language : English
Default : No
Forced : No

Text #3
ID : 5
Format : UTF-8
Codec ID : S_TEXT/UTF8
Codec ID/Info : UTF-8 Plain Text
Duration : 1 h 25 min
Bit rate : 46 b/s
Frame rate : 0.207 FPS
Count of elements : 1060
Stream size : 29.2 KiB (0%)
Title : Full_2_eng
Language : English
Default : No
Forced : No

Text #4
ID : 6
Format : UTF-8
Codec ID : S_TEXT/UTF8
Codec ID/Info : UTF-8 Plain Text
Duration : 1 h 26 min
Bit rate : 50 b/s
Frame rate : 0.226 FPS
Count of elements : 1172
Stream size : 32.2 KiB (0%)
Title : SDH_eng
Language : English
Default : No
Forced : No

Menu
00:00:00.000 : en:Chapter 01
00:11:26.269 : en:Chapter 02
00:32:01.878 : en:Chapter 03
00:41:19.143 : en:Chapter 04
00:58:49.443 : en:Chapter 05
01:20:30.534 : en:Chapter 06

Другие фильмы
У данной публикации пока нет комментариев.
Будь первым, оставь своё мнение в комментариях!
Информация
Посетители, находящиеся в группе Гости, не могут оставлять комментарии к данной публикации.
Самый популярный релиз недели
Донаты
Мы в соц. сетях / RSS

Лучшие релизы месяца
Лучшие SD недели
Лучшие 720p недели
Лучшие 1080p недели
Лучшие 4K недели
Вы недавно смотрели
Реклама
Последние комментарии
...

rmzshka

15 мая 2024 13:43

...

Andrey_Vladimirovich

13 мая 2024 18:12

...

Robot

13 мая 2024 16:53

...

rmzshka

13 мая 2024 16:21

...

supermehanik

13 мая 2024 02:03

Реклама