+5

Комната чудес / La chambre des merveilles (2023) WEB-DLRip-AVC от DoMiNo & селезень | D

Информация о фильме
Название: Комната чудес
Оригинальное название: La chambre des merveilles
Год выхода: 2023
Жанр: Драма
Режиссер: Лиза Азуэлос
В ролях: Александра Лами, Мария Фернанда Кандидо, Мюриель Робен, Рафи Питтс, Эй Айдара, Ксавье Лакай, Мартина Шамбахер, Юго Кестель, Эдвин Бюргер, Камира Амураш

О фильме:
У Тельмы есть все — успешная карьера, семья, любимый сын. Но однажды мальчика случайно сбивает грузовик, и он оказывается в коме. Чувствуя, что есть шанс пробудить сына к жизни, Тельма решает исполнять все его мечты, записывая это на камеру. Теперь ей предстоит перейти с закрытыми глазами перекресток в Токио, сыграть в футбол с его любимой командой и даже потрогать грудь математички… Увидит ли он это все своими собственными глазами?

Страна: Франция
Студия: Ciné, Cinéaxe 2, Cinécap 5, Jerico
Продолжительность: 01:38:04
Перевод: Дублированный | Кипарис
Субтитры: Русские (Full), французские (Forced)

Файл
Формат: Matroska
Качество: WEB-DLRip-AVC
Видео: 1024x426 at 24.000 fps, [email protected], ~1749 kbps
Аудио: AC3, 6 ch, ~384 kbps - | Русский | Комната чудес / La chambre des merveilles (2023) WEB-DLRip-AVC от DoMiNo & селезень | D
Формат субтитров: softsub (SRT)

Авторизуйтесь для получения доступа к скачиванию

Нет аккаунта? Регистрация открыта и займёт меньше минуты

Вход Регистрация

General
Unique ID : 294203441406618287956590756028272559180 (0xDD558591B6EF4D2A07F6AD48D6EB444C)
Complete name : I:La.chambre.des.merveilles.2023.DUB.WEB-DLRip.x264.seleZen.mkv
Format : Matroska
Format version : Version 4
File size : 1.46 GiB
Duration : 1 h 38 min
Overall bit rate : 2 133 kb/s
Frame rate : 24.000 FPS
Movie name : La.chambre.des.merveilles.2023.DUB.WEB-DLRip.x264.seleZen
Encoded date : 2023-07-16 09:42:01 UTC
Writing application : mkvmerge v78.0 ('Running') 64-bit
Writing library : libebml v1.4.4 + libmatroska v1.7.1
Cover : Yes
Attachments : cover.jpg / small_cover.jpg

Video
ID : 1
Format : AVC
Format/Info : Advanced Video Codec
Format profile : [email protected]
Format settings : CABAC / 11 Ref Frames
Format settings, CABAC : Yes
Format settings, Reference : 11 frames
Codec ID : V_MPEG4/ISO/AVC
Duration : 1 h 38 min
Bit rate : 1 749 kb/s
Width : 1 024 pixels
Height : 426 pixels
Display aspect ratio : 2.40:1
Frame rate mode : Constant
Frame rate : 24.000 FPS
Color space : YUV
Chroma subsampling : 4:2:0
Bit depth : 8 bits
Scan type : Progressive
Bits/(Pixel*Frame) : 0.167
Stream size : 1.20 GiB (82%)
Title : -=DoMiNo=-
Writing library : x264 core 164 r3107+58M ae98796 t_mod_New | by -=DoMiNo=- | X86_64]
Encoding settings : cabac=1 / ref=11 / deblock=1:-2:-2 / analyse=0x3:0x133 / me=umh / subme=10 / psy=1 / fade_compensate=0.00 / psy_rd=1.02:0.03 / mixed_ref=1 / me_range=32 / chroma_me=1 / trellis=2 / 8x8dct=1 / cqm=0 / deadzone=21,11 / fast_pskip=0 / chroma_qp_offset=-3 / threads=17 / lookahead_threads=2 / sliced_threads=0 / nr=0 / decimate=0 / interlaced=0 / bluray_compat=0 / constrained_intra=0 / fgo=0 / bframes=9 / b_pyramid=2 / b_adapt=2 / b_bias=0 / direct=3 / weightb=1 / open_gop=0 / weightp=2 / keyint=240 / keyint_min=24 / scenecut=40 / intra_refresh=0 / rc_lookahead=60 / rc=2pass / mbtree=0 / bitrate=1749 / ratetol=1.0 / qcomp=0.73 / qpmin=0:0:0 / qpmax=69:69:69 / qpstep=4 / cplxblur=20.0 / qblur=0.5 / vbv_maxrate=50000 / vbv_bufsize=62500 / nal_hrd=none / filler=0 / ip_ratio=1.16 / pb_ratio=1.40 / aq=1:0.90 / aq-sensitivity=10.00 / aq-factor=1.00:1.00:1.00 / aq2=0 / aq3=0
Language : English
Default : Yes
Forced : No

Audio
ID : 2
Format : AC-3
Format/Info : Audio Coding 3
Commercial name : Dolby Digital
Codec ID : A_AC3
Duration : 1 h 38 min
Bit rate mode : Constant
Bit rate : 384 kb/s
Channel(s) : 6 channels
Channel layout : L R C LFE Ls Rs
Sampling rate : 48.0 kHz
Frame rate : 31.250 FPS (1536 SPF)
Compression mode : Lossy
Stream size : 270 MiB (18%)
Title : Dub
Language : Russian
Service kind : Complete Main
Default : Yes
Forced : No

Text #1
ID : 3
Format : UTF-8
Codec ID : S_TEXT/UTF8
Codec ID/Info : UTF-8 Plain Text
Duration : 1 h 32 min
Bit rate : 78 b/s
Frame rate : 0.236 FPS
Count of elements : 1314
Stream size : 53.2 KiB (0%)
Title : Full
Language : Russian
Default : No
Forced : No

Text #2
ID : 4
Format : UTF-8
Codec ID : S_TEXT/UTF8
Codec ID/Info : UTF-8 Plain Text
Duration : 1 h 7 min
Bit rate : 11 b/s
Frame rate : 0.052 FPS
Count of elements : 212
Stream size : 5.49 KiB (0%)
Title : French Forced
Language : French
Default : No
Forced : No

Другие фильмы
У данной публикации пока нет комментариев.
Будь первым, оставь своё мнение в комментариях!
Информация
Посетители, находящиеся в группе Гости, не могут оставлять комментарии к данной публикации.
Самый популярный релиз недели
Донаты
Мы в соц. сетях / RSS

Лучшие релизы месяца
Лучшие SD недели
Лучшие 720p недели
Лучшие 1080p недели
Лучшие 4K недели
Вы недавно смотрели
Реклама
Последние комментарии
...

alexei5881

Вчера, 14:20

...

Laska020489

Вчера, 00:06

...

Laska020489

9 декабря 2023 23:50

...

medjack

9 декабря 2023 16:19

...

RisingUA

9 декабря 2023 13:09

Реклама