+10

Канал / The Channel (2023) BDRip 720p от DoMiNo & селезень | P

Информация о фильме
Название: Канал
Оригинальное название: The Channel
Жанр: боевик, триллер, криминал
Год выпуска: 2023
Режиссер: Уильям Кауфман / William Kaufman
В ролях: Клейн Кроуфорд, Макс Мартини, Michael Thomas, Пол Рэй, Тодд Дженкинс, Жюльен Джойнер, Fabiola Andújar, Лаки Джонсон, Джереми Сэнд, Джарен Митчелл

Описание:
После неудачного ограбления банка отчаявшийся преступник, его вышедший из-под контроля брат и их разношерстная команда бывших морских пехотинцев должны сбежать из Нового Орлеана и от решительного агента ФБР, который их преследует.

Страна: США
Студия: Appalachian Film, Denton Film.Roosevelt Film Lab
Продолжительность: 01:41:14
Перевод 1: Профессиональный (многоголосый, закадровый) | OKKO
Перевод 2: Профессиональный (многоголосый, закадровый) | HDRezka Studio
Перевод 3: Профессиональный (многоголосый, закадровый) | TVShows
Субтитры: Русские (Forced), Английские

Файл
Формат: Matroska
Качество: BDRip 720p
Видео: 1280x534 at 23.976 fps, MPEG-4 AVC, ~3994 kbps
Аудио 1: AC3, 6 ch, ~384 kbps - | Русский | Канал / The Channel (2023) BDRip 720p от DoMiNo & селезень | P | OKKO
Аудио 2: AC3, 6 ch, ~448 kbps - | Русский | | HDRezka Studio
Аудио 3: AC3, 6 ch, ~384 kbps - | Русский | | TVShows
Аудио 4: DTS, 6 ch, ~768 kbps - | Английский | | Original
Формат субтитров: softsub (SRT)

Авторизуйтесь для получения доступа к скачиванию

Нет аккаунта? Регистрация открыта и займёт меньше минуты

Вход Регистрация

General
Unique ID: 294775156383087112813708806470877203908 (0xDDC3A14B37688615DA62311CA4B64DC4)
Complete name: T: The.Channel.2023.3xMVO.BDRip.720p.x264.seleZen.mkv
Format: Matroska
Format version: Version 4
File size: 4.23 GiB
Duration: 1 h 41 min
Overall bit rate: 5 982 kb/s
Frame rate: 23.976 FPS
Movie name: The.Channel.2023.3xMVO.BDRip.720p.x264.seleZen
Encoded date: 14.04.2024 14:57:07 UTC
Writing application: mkvmerge v83.0 ('Circle Of Friends') 64-bit
Writing library: libebml v1.4.5 + libmatroska v1.7.1
Cover: Yes
Attachments: cover.jpg / small_cover.jpg

Video
ID: 1
Format: AVC
Format/Info: Advanced Video Codec
Format profile: [email protected]
Format settings: CABAC / 12 Ref Frames
Format settings, CABAC: Yes
Format settings, Reference: 12 frames
Codec ID: V_MPEG4/ISO/AVC
Duration: 1 h 41 min
Bit rate: 3 994 kb/s
Width: 1 280 pixels
Height: 534 pixels
Display aspect ratio: 2.40:1
Frame rate mode: Constant
Frame rate: 23.976 (24000/1001) FPS
Color space: YUV
Chroma subsampling: 4:2:0
Bit depth: 8 bits
Scan type: Progressive
Bits/(Pixel*Frame): 0.244
Stream size: 2.82 GiB (67%)
Title: -=DoMiNo=-
Writing library: x264 core 164 r3190 -DoMiNo
Encoding settings: cabac=1 / ref=12 / deblock=1:-2:-2 / analyse=0×3:0×133 / me=umh / subme=10 / psy=1 / psy_rd=1.05:0.04 / mixed_ref=1 / me_range=32 / chroma_me=1 / trellis=2 / 8×8dct=1 / cqm=0 / deadzone=21,11 / fast_pskip=0 / chroma_qp_offset=-3 / threads=17 / lookahead_threads=4 / sliced_threads=0 / nr=0 / decimate=0 / interlaced=0 / bluray_compat=0 / constrained_intra=0 / bframes=10 / b_pyramid=2 / b_adapt=2 / b_bias=0 / direct=1 / weightb=1 / open_gop=0 / weightp=2 / keyint=240 / keyint_min=23 / scenecut=40 / intra_refresh=0 / rc_lookahead=60 / rc=crf / mbtree=0 / crf=16.0 / qcomp=0.60 / qpmin=0 / qpmax=69 / qpstep=4 / vbv_maxrate=50000 / vbv_bufsize=62500 / crf_max=0.0 / nal_hrd=none / filler=0 / ip_ratio=1.40 / pb_ratio=1.30 / aq=3:0.80
Language: English
Default: Yes
Forced: No
Color range: Limited
Color primaries: BT.709
Transfer characteristics: BT.709
Matrix coefficients: BT.709

Audio #1
ID: 2
Format: AC-3
Format/Info: Audio Coding 3
Commercial name: Dolby Digital
Codec ID: A_AC3
Duration: 1 h 41 min
Bit rate mode: Constant
Bit rate: 384 kb/s
Channel (s): 6 channels
Channel layout: L R C LFE Ls Rs
Sampling rate: 48.0 kHz
Frame rate: 31.250 FPS (1536 SPF)
Compression mode: Lossy
Stream size: 278 MiB (6%)
Title: MVO -OKKO
Language: Russian
Service kind: Complete Main
Default: Yes
Forced: No
AC3_metadata cmixlev: -3.0 dB
surmixlev: -3 dB

Audio #2
ID: 3
Format: AC-3
Format/Info: Audio Coding 3
Commercial name: Dolby Digital
Codec ID: A_AC3
Duration: 1 h 41 min
Bit rate mode: Constant
Bit rate: 448 kb/s
Channel (s): 6 channels
Channel layout: L R C LFE Ls Rs
Sampling rate: 48.0 kHz
Frame rate: 31.250 FPS (1536 SPF)
Compression mode: Lossy
Stream size: 324 MiB (7%)
Title: MVO -HDRezka Studio
Language: Russian
Service kind: Complete Main
Default: No
Forced: No
AC3_metadata cmixlev: -3.0 dB
surmixlev: -3 dB

Audio #3
ID: 4
Format: AC-3
Format/Info: Audio Coding 3
Commercial name: Dolby Digital
Codec ID: A_AC3
Duration: 1 h 41 min
Bit rate mode: Constant
Bit rate: 384 kb/s
Channel (s): 6 channels
Channel layout: L R C LFE Ls Rs
Sampling rate: 48.0 kHz
Frame rate: 31.250 FPS (1536 SPF)
Compression mode: Lossy
Stream size: 278 MiB (6%)
Title: MVO -TVShows
Language: Russian
Service kind: Complete Main
Default: No
Forced: No
AC3_metadata cmixlev: -3.0 dB
surmixlev: -3 dB

Audio #4
ID: 5
Format: DTS
Format/Info: Digital Theater Systems
Codec ID: A_DTS
Duration: 1 h 41 min
Bit rate mode: Constant
Bit rate: 768 kb/s
Channel (s): 6 channels
Channel layout: C L R Ls Rs LFE
Sampling rate: 48.0 kHz
Frame rate: 93.750 FPS (512 SPF)
Bit depth: 16 bits
Compression mode: Lossy
Stream size: 556 MiB (13%)
Title: Original
Language: English
Default: Yes
Forced: No

Text #1
ID: 6
Format: UTF-8
Codec ID: S_TEXT/UTF8
Codec ID/Info: UTF-8 Plain Text
Duration: 59 min 44 s
Bit rate: 2 b/s
Frame rate: 0.005 FPS
Count of elements: 17
Stream size: 928 Bytes (0%)
Title: Forced -HDRezka Studio
Language: Russian
Default: No
Forced: No

Text #2
ID: 7
Format: UTF-8
Codec ID: S_TEXT/UTF8
Codec ID/Info: UTF-8 Plain Text
Duration: 1 h 32 min
Bit rate: 57 b/s
Frame rate: 0.214 FPS
Count of elements: 1184
Stream size: 38.9 KiB (0%)
Title: Full
Language: English
Default: No
Forced: No

Text #3
ID: 8
Format: UTF-8
Codec ID: S_TEXT/UTF8
Codec ID/Info: UTF-8 Plain Text
Duration: 1 h 35 min
Bit rate: 60 b/s
Frame rate: 0.232 FPS
Count of elements: 1331
Stream size: 42.2 KiB (0%)
Title: SDH
Language: English
Default: No
Forced: No

Menu
00:00:00.000: Глава 1
00:05:46.137: Глава 2
00:20:09.041: Глава 3
00:29:10.457: Глава 4
00:35:33.506: Глава 5
00:42:05.814: Глава 6
00:50:04.793: Глава 7
01:02:04.262: Глава 8
01:11:05.469: Глава 9
01:16:07.604: Глава 10
01:27:42.924: Глава 11
01:36:41.378: Глава 12
01:41:14.109: Глава 13

Другие фильмы
У данной публикации пока нет комментариев.
Будь первым, оставь своё мнение в комментариях!
Информация
Посетители, находящиеся в группе Гости, не могут оставлять комментарии к данной публикации.
Самый популярный релиз недели
Донаты
Мы в соц. сетях / RSS

Лучшие релизы месяца
Лучшие SD недели
Лучшие 720p недели
Лучшие 1080p недели
Лучшие 4K недели
Вы недавно смотрели
Реклама
Последние комментарии
...

rmzshka

15 мая 2024 13:43

...

Andrey_Vladimirovich

13 мая 2024 18:12

...

Robot

13 мая 2024 16:53

...

rmzshka

13 мая 2024 16:21

...

supermehanik

13 мая 2024 02:03

Реклама