+5

Индиана Джонс и колесо судьбы / Indiana Jones and the Dial of Destiny (2023) UHD WEB-DL-HEVC 2160p от селезень | 4K | SDR | D

Информация о фильме
Название: Индиана Джонс и колесо судьбы
Оригинальное название: Indiana Jones and the Dial of Destiny
Год выхода: 2023
Жанр: боевик, приключения
Режиссер: Джеймс Мэнголд
В ролях: Харрисон Форд, Фиби Уоллер-Бридж, Мадс Миккельсен, Антонио Бандерас, Джон Рис-Дэвис, Тоби Джонс, Бойд Холбрук, Карен Аллен, Шонетт Рене Уилсон, Томас Кречман

О фильме: Неувядающий авантюрист и пытливый археолог-исследователь по-прежнему в седле. На этот раз ему придётся столкнуться с непростой задачей, которую решить на раз-два вряд ли получится. Но Индиана Джонс не даст слабину и не отступит при виде даже самой безнадёжной ситуации.

Страна: США
Студия: Amblin Entertainment, Lucasfilm Ltd., Paramount Pictures
Продолжительность: 02:36:54
Перевод: Дублированный | MovieDalen

Качество: WEB-DL 2160p
Видео: 3840x1600 at 23.976 fps, MPEG-H HEVC SDR Video, 8 Bit, 14500 kbps
Аудио #01: 48 kHz, AC3, 2.0, 192 Kbps | Дублированный | MovieDalen | RUS |Индиана Джонс и колесо судьбы / Indiana Jones and the Dial of Destiny (2023) UHD WEB-DL-HEVC 2160p от селезень | 4K | SDR | D
Аудио #02: 48 kHz, E-AC3, 5.1, 256 Kbps | Дублированный | UKR |
Аудио #03: 48 kHz, E-AC3+Atmos, 5.1, 768 Kbps | Оригинал | ENG |
Субтитры: Русские (Forced, full), украинские (Forced, full), английские

Индиана Джонс и колесо судьбы / Indiana Jones and the Dial of Destiny (2023) UHD WEB-DL-HEVC 2160p от селезень | 4K | SDR | D

Авторизуйтесь для получения доступа к скачиванию

Нет аккаунта? Регистрация открыта и займёт меньше минуты

Вход Регистрация

General
Unique ID : 49234599749072343946423664464708440255 (0x250A3D2ED1E8CDDAD47C4DEBAACF10BF)
Complete name : G:\VideoG\Indiana.Jones.and.the.Dial.of.Destiny.2023.WEB-DL.2160p.SDR.seleZen.mkv
Format : Matroska
Format version : Version 4
File size : 17.2 GiB
Duration : 2 h 38 min
Overall bit rate : 15.6 Mb/s
Frame rate : 23.976 FPS
Movie name : Indiana.Jones.and.the.Dial.of.Destiny.2023 from seleZen
Encoded date : 2023-08-29 00:39:11 UTC
Writing application : mkvmerge v63.0.0 ('Everything') 64-bit
Writing library : libebml v1.4.2 + libmatroska v1.6.4

Video
ID : 1
Format : HEVC
Format/Info : High Efficiency Video Coding
Format profile : Main@L5@Main
Codec ID : V_MPEGH/ISO/HEVC
Duration : 2 h 36 min
Bit rate : 14.5 Mb/s
Width : 3 840 pixels
Height : 1 600 pixels
Display aspect ratio : 2.40:1
Frame rate mode : Constant
Frame rate : 23.976 (24000/1001) FPS
Color space : YUV
Chroma subsampling : 4:2:0
Bit depth : 8 bits
Bits/(Pixel*Frame) : 0.099
Stream size : 15.9 GiB (92%)
Language : English (US)
Default : Yes
Forced : No
Color range : Limited
Color primaries : BT.709
Transfer characteristics : BT.709
Matrix coefficients : BT.709

Audio #1
ID : 2
Format : AC-3
Format/Info : Audio Coding 3
Commercial name : Dolby Digital
Codec ID : A_AC3
Duration : 2 h 34 min
Bit rate mode : Constant
Bit rate : 192 kb/s
Channel(s) : 2 channels
Channel layout : L R
Sampling rate : 48.0 kHz
Frame rate : 31.250 FPS (1536 SPF)
Compression mode : Lossy
Stream size : 212 MiB (1%)
Title : Dub
Language : Russian
Service kind : Complete Main
Default : Yes
Forced : Yes

Audio #2
ID : 3
Format : E-AC-3
Format/Info : Enhanced AC-3
Commercial name : Dolby Digital Plus
Codec ID : A_EAC3
Duration : 2 h 38 min
Bit rate mode : Constant
Bit rate : 256 kb/s
Channel(s) : 6 channels
Channel layout : L R C LFE Ls Rs
Sampling rate : 48.0 kHz
Frame rate : 31.250 FPS (1536 SPF)
Compression mode : Lossy
Stream size : 289 MiB (2%)
Title : Dub
Language : Ukrainian
Service kind : Complete Main
Default : No
Forced : No

Audio #3
ID : 4
Format : E-AC-3 JOC
Format/Info : Enhanced AC-3 with Joint Object Coding
Commercial name : Dolby Digital Plus with Dolby Atmos
Codec ID : A_EAC3
Duration : 2 h 34 min
Bit rate mode : Constant
Bit rate : 768 kb/s
Channel(s) : 6 channels
Channel layout : L R C LFE Ls Rs
Sampling rate : 48.0 kHz
Frame rate : 31.250 FPS (1536 SPF)
Compression mode : Lossy
Delay relative to video : 19 ms
Stream size : 849 MiB (5%)
Title : Original
Language : English
Service kind : Complete Main
Default : No
Forced : No
Complexity index : 16
Number of dynamic objects : 15
Bed channel count : 1 channel
Bed channel configuration : LFE

Text #1
ID : 5
Format : UTF-8
Codec ID : S_TEXT/UTF8
Codec ID/Info : UTF-8 Plain Text
Duration : 2 h 16 min
Bit rate : 4 b/s
Frame rate : 0.018 FPS
Count of elements : 150
Stream size : 4.97 KiB (0%)
Title : Forced
Language : Russian
Default : Yes
Forced : Yes

Text #2
ID : 6
Format : UTF-8
Codec ID : S_TEXT/UTF8
Codec ID/Info : UTF-8 Plain Text
Duration : 2 h 33 min
Bit rate : 58 b/s
Frame rate : 0.190 FPS
Count of elements : 1750
Stream size : 65.4 KiB (0%)
Title : Full
Language : Russian
Default : No
Forced : No

Text #3
ID : 7
Format : UTF-8
Codec ID : S_TEXT/UTF8
Codec ID/Info : UTF-8 Plain Text
Duration : 2 h 16 min
Bit rate : 5 b/s
Frame rate : 0.019 FPS
Count of elements : 153
Stream size : 5.04 KiB (0%)
Title : Forced
Language : Ukrainian
Default : No
Forced : No

Text #4
ID : 8
Format : UTF-8
Codec ID : S_TEXT/UTF8
Codec ID/Info : UTF-8 Plain Text
Duration : 2 h 33 min
Bit rate : 57 b/s
Frame rate : 0.190 FPS
Count of elements : 1750
Stream size : 65.2 KiB (0%)
Title : Full
Language : Ukrainian
Default : No
Forced : No

Text #5
ID : 9
Format : UTF-8
Codec ID : S_TEXT/UTF8
Codec ID/Info : UTF-8 Plain Text
Duration : 2 h 16 min
Bit rate : 2 b/s
Frame rate : 0.017 FPS
Count of elements : 141
Stream size : 2.77 KiB (0%)
Title : Forced
Language : English
Default : No
Forced : No

Text #6
ID : 10
Format : UTF-8
Codec ID : S_TEXT/UTF8
Codec ID/Info : UTF-8 Plain Text
Duration : 2 h 22 min
Bit rate : 41 b/s
Frame rate : 0.204 FPS
Count of elements : 1739
Stream size : 42.9 KiB (0%)
Language : English
Default : No
Forced : No

Menu
00:00:00.019 : en:Chapter 01
00:05:08.369 : en:Chapter 02
00:08:50.049 : en:Chapter 03
00:14:47.823 : en:Chapter 04
00:21:35.939 : en:Chapter 05
00:24:15.391 : en:Chapter 06
00:27:06.645 : en:Chapter 07
00:33:11.719 : en:Chapter 08
00:40:37.998 : en:Chapter 09
00:46:27.973 : en:Chapter 10
00:51:31.694 : en:Chapter 11
00:54:33.792 : en:Chapter 12
00:59:39.014 : en:Chapter 13
01:02:08.330 : en:Chapter 14
01:09:01.577 : en:Chapter 15
01:13:37.144 : en:Chapter 16
01:20:14.166 : en:Chapter 17
01:26:12.191 : en:Chapter 18
01:34:29.563 : en:Chapter 19
01:36:51.205 : en:Chapter 20
01:40:45.189 : en:Chapter 21
01:48:09.508 : en:Chapter 22
01:55:40.417 : en:Chapter 23
02:02:24.822 : en:Chapter 24
02:05:18.162 : en:Chapter 25
02:12:35.849 : en:Chapter 26
02:17:39.903 : en:Chapter 27
02:23:27.626 : en:Chapter 28

Другие фильмы
У данной публикации пока нет комментариев.
Будь первым, оставь своё мнение в комментариях!
Информация
Посетители, находящиеся в группе Гости, не могут оставлять комментарии к данной публикации.
Самый популярный релиз недели
Донаты
Мы в соц. сетях / RSS

Лучшие релизы месяца
Лучшие SD недели
Лучшие 720p недели
Лучшие 1080p недели
Лучшие 4K недели
Вы недавно смотрели
Реклама
Последние комментарии
...

Tony1984

Вчера, 14:36

...

bolonka123

19 апреля 2024 10:05

...

Sergunka

17 апреля 2024 23:31

...

-=DoMiNo=-

17 апреля 2024 13:52

...

bolonka123

17 апреля 2024 11:43

Реклама