+10

Выход Дракона / Enter the Dragon (1973) UHD BDRemux 2160p от селезень | 4K | HDR | D

Информация о фильме
Название: Выход Дракона
Оригинальное название: Enter the Dragon
Год выхода: 1973
Жанр: боевик, драма, криминал
Режиссер: Роберт Клауз
В ролях: Брюс Ли, Ши Кень, Джон Сэксон, Джим Келли, Боло Йен, Ана Капри, Анджела Мао, Роберт Уолл, Бетти Чюн, Джефри Уикс

О фильме: На острове, превращённом в неприступную крепость, боевики открыли школу боевых искусств, которая является лишь ширмой для прикрытия бизнеса по контрабанде. В эту цитадель проникает Ли и становится участником жестокого турнира.

Страна: Гонконг, США
Студия: Concord Productions Inc., Sequoia Productions, Warner Bros. Pictures Co.
Продолжительность: 01:42:32
Перевод: Дублированный | Мосвидео

Качество: BDRemux 2160p
Видео: 3840x2160 at 23.976 fps, MPEG-H HEVC HDR Video, 45000 kbps avg
Аудио #01: 48 kHz, AC3, 5.1, 384 Kbps | Дублированный | Мосвидео | RUS |Выход Дракона / Enter the Dragon (1973) UHD BDRemux 2160p от селезень | 4K | HDR | D
Аудио #02: 48 kHz, TrueHD, 7.1, 2647 Kbps | Оригинал | ENG |
Аудио #03: 48 kHz, AC3, 5.1, 448 Kbps | Оригинал | ENG |
Субтитры: Русские (Full), Английские

Выход Дракона / Enter the Dragon (1973) UHD BDRemux 2160p от селезень | 4K | HDR | D

Авторизуйтесь для получения доступа к скачиванию

Нет аккаунта? Регистрация открыта и займёт меньше минуты

Вход Регистрация

General
Unique ID : 212356746643078494540537381366780684376 (0x9FC26BF62FB5C5C3B298097279906858)
Complete name : G:\VideoG\Enter.the.Dragon.1973.BDREMUX.2160p.HDR.seleZen.mkv
Format : Matroska
Format version : Version 4
File size : 34.7 GiB
Duration : 1 h 42 min
Overall bit rate mode : Variable
Overall bit rate : 48.5 Mb/s
Frame rate : 23.976 FPS
Movie name : Enter the Dragon (1973) from seleZen
Encoded date : 2023-09-25 00:34:51 UTC
Writing application : mkvmerge v79.0 ('Funeral Pyres') 64-bit
Writing library : libebml v1.4.4 + libmatroska v1.7.1

Video
ID : 1
Format : HEVC
Format/Info : High Efficiency Video Coding
Format profile : Main [email protected]@High
HDR format : SMPTE ST 2086, HDR10 compatible
Codec ID : V_MPEGH/ISO/HEVC
Duration : 1 h 42 min
Bit rate : 45.0 Mb/s
Width : 3 840 pixels
Height : 2 160 pixels
Display aspect ratio : 16:9
Frame rate mode : Constant
Frame rate : 23.976 (24000/1001) FPS
Color space : YUV
Chroma subsampling : 4:2:0 (Type 2)
Bit depth : 10 bits
Bits/(Pixel*Frame) : 0.226
Stream size : 32.2 GiB (93%)
Writing library : ATEME Titan File 3.9.6 (4.9.6.2)
Language : English
Default : Yes
Forced : No
Color range : Limited
Color primaries : BT.2020
Transfer characteristics : PQ
Matrix coefficients : BT.2020 non-constant
Mastering display color primaries : Display P3
Mastering display luminance : min: 0.0001 cd/m2, max: 1000 cd/m2
Maximum Content Light Level : 995 cd/m2
Maximum Frame-Average Light Level : 216 cd/m2

Audio #1
ID : 2
Format : AC-3
Format/Info : Audio Coding 3
Commercial name : Dolby Digital
Codec ID : A_AC3
Duration : 1 h 42 min
Bit rate mode : Constant
Bit rate : 384 kb/s
Channel(s) : 6 channels
Channel layout : L R C LFE Ls Rs
Sampling rate : 48.0 kHz
Frame rate : 31.250 FPS (1536 SPF)
Compression mode : Lossy
Stream size : 282 MiB (1%)
Title : Dub
Language : Russian
Service kind : Complete Main
Default : Yes
Forced : No

Audio #2
ID : 3
Format : MLP FBA 16-ch
Format/Info : Meridian Lossless Packing FBA with 16-channel presentation
Commercial name : Dolby TrueHD with Dolby Atmos
Codec ID : A_TRUEHD
Duration : 1 h 42 min
Bit rate mode : Variable
Bit rate : 2 647 kb/s
Maximum bit rate : 4 860 kb/s
Channel(s) : 8 channels
Channel layout : L R C LFE Ls Rs Lb Rb
Sampling rate : 48.0 kHz
Frame rate : 1 200.000 FPS (40 SPF)
Compression mode : Lossless
Stream size : 1.90 GiB (5%)
Title : Original
Language : English
Default : No
Forced : No
Number of dynamic objects : 11
Bed channel count : 1 channel
Bed channel configuration : LFE

Audio #3
ID : 4
Format : AC-3
Format/Info : Audio Coding 3
Commercial name : Dolby Digital
Codec ID : A_AC3
Duration : 1 h 42 min
Bit rate mode : Constant
Bit rate : 448 kb/s
Channel(s) : 6 channels
Channel layout : L R C LFE Ls Rs
Sampling rate : 48.0 kHz
Frame rate : 31.250 FPS (1536 SPF)
Compression mode : Lossy
Stream size : 329 MiB (1%)
Language : English
Service kind : Complete Main
Default : No
Forced : No

Text #1
ID : 5
Format : UTF-8
Codec ID : S_TEXT/UTF8
Codec ID/Info : UTF-8 Plain Text
Duration : 1 h 39 min
Bit rate : 31 b/s
Frame rate : 0.086 FPS
Count of elements : 514
Stream size : 22.8 KiB (0%)
Title : Full
Language : Russian
Default : No
Forced : No

Text #2
ID : 6
Format : UTF-8
Codec ID : S_TEXT/UTF8
Codec ID/Info : UTF-8 Plain Text
Duration : 1 h 39 min
Bit rate : 22 b/s
Frame rate : 0.080 FPS
Count of elements : 481
Stream size : 16.3 KiB (0%)
Language : English
Default : No
Forced : No

Menu
00:00:00.000 : en:Глава 01
00:02:28.607 : en:Глава 02
00:05:28.036 : en:Глава 03
00:08:25.797 : en:Глава 04
00:10:40.181 : en:Глава 05
00:14:38.836 : en:Глава 06
00:20:15.673 : en:Глава 07
00:25:07.840 : en:Глава 08
00:27:40.534 : en:Глава 09
00:31:33.391 : en:Глава 10
00:34:03.375 : en:Глава 11
00:38:59.629 : en:Глава 12
00:41:53.052 : en:Глава 13
00:45:20.593 : en:Глава 14
00:46:35.001 : en:Глава 15
00:50:47.670 : en:Глава 16
00:55:11.058 : en:Глава 17
00:57:55.681 : en:Глава 18
01:00:35.590 : en:Глава 19
01:05:27.257 : en:Глава 20
01:08:59.719 : en:Глава 21
01:11:24.697 : en:Глава 22
01:16:00.514 : en:Глава 23
01:20:09.471 : en:Глава 24
01:25:08.520 : en:Глава 25
01:28:51.201 : en:Глава 26
01:31:36.616 : en:Глава 27
01:35:14.042 : en:Глава 28
01:40:23.601 : en:Глава 29

Другие фильмы
У данной публикации пока нет комментариев.
Будь первым, оставь своё мнение в комментариях!
Информация
Посетители, находящиеся в группе Гости, не могут оставлять комментарии к данной публикации.
Самый популярный релиз недели
Донаты
Мы в соц. сетях / RSS

Лучшие релизы месяца
Лучшие SD недели
Лучшие 720p недели
Лучшие 1080p недели
Лучшие 4K недели
Вы недавно смотрели
Реклама
Последние комментарии
...

fataxdd

16 июля 2024 07:13

...

Rustik99

12 июля 2024 10:11

...

Rograr

6 июля 2024 19:56

...

fenix

2 июля 2024 07:45

...

Fidelrus

28 июня 2024 13:53

Реклама