+4

Создатель / The Creator (2023) UHD WEB-DL-HEVC 2160p от селезень | 4K | HDR | Dolby Vision Profile 8 | D, P

Информация о фильме
Название: Создатель
Оригинальное название: The Creator
Год выхода: 2023
Жанр: фантастика, боевик, триллер, драма, приключения
Режиссер: Гарет Эдвардс
В ролях: Джон Дэвид Вашингтон, Мэделин Юна Войлс, Джемма Чан, Эллисон Дженни, Кэн Ватанабэ, Стерджил Симпсон, Амер Чадха-Пател, Марк Менчака, Робби Танн, Ральф Айнесон

О фильме: На фоне войны будущего между человечеством и силами искусственного интеллекта Джошуа, закаленный в боях и бывший оперативный агент, переживает исчезновение жены, и теперь ему предстоит найти и уничтожить Создателя - неуловимого архитектора, создавшего искусственный интеллект и оружие, способное положить конец всему людскому роду.

Страна: США
Студия: 20th Century Studios, Regency Television
Продолжительность: 02:13:23
Перевод(ы):
#1: Дублированный | MovieDalen
#2: Профессиональный многоголосый | Newcomers


Качество: WEB-DL 2160p
Видео: 3840x2160 at 24.000 fps, MPEG-H HEVC HDR Video, 24900 kbps avg
Аудио #01: 48 kHz, AC3, 5.1, 384 Kbps | Дублированный | MovieDalen | RUS |Создатель / The Creator (2023) UHD WEB-DL-HEVC 2160p от селезень | 4K | HDR | Dolby Vision Profile 8 | D, P
Аудио #02: 48 kHz, AC3, 5.1, 640 Kbps | Профессиональный многоголосый | Newcomers | RUS |
Аудио #03: 48 kHz, E-AC3+Atmos, 5.1, 768 Kbps | Оригинал | ENG |
Субтитры: Русские (2 x Forced, full), английские

Создатель / The Creator (2023) UHD WEB-DL-HEVC 2160p от селезень | 4K | HDR | Dolby Vision Profile 8 | D, P

Авторизуйтесь для получения доступа к скачиванию

Нет аккаунта? Регистрация открыта и займёт меньше минуты

Вход Регистрация

General
Unique ID : 219908019911925268604241319878587283393 (0xA570BE7A7305C02F2C0AC411BCDF77C1)
Complete name : H:\VideoH\2\The.Creator.2023.MA.WEB-DL.2160p.HDR.DVP8.seleZen.mkv
Format : Matroska
Format version : Version 4
File size : 24.3 GiB
Duration : 2 h 15 min
Overall bit rate : 25.7 Mb/s
Frame rate : 24.000 FPS
Movie name : The Creator 2023 from seleZen
Encoded date : 2023-11-14 12:47:29 UTC
Writing application : mkvmerge v79.0 ('Funeral Pyres') 64-bit
Writing library : libebml v1.4.4 + libmatroska v1.7.1

Video
ID : 1
Format : HEVC
Format/Info : High Efficiency Video Coding
Format profile : Main 10@L5@High
HDR format : Dolby Vision, Version 1.0, dvhe.08.06, BL+RPU, HDR10 compatible / SMPTE ST 2086, HDR10 compatible
Codec ID : V_MPEGH/ISO/HEVC
Duration : 2 h 13 min
Bit rate : 24.3 Mb/s
Width : 3 840 pixels
Height : 2 160 pixels
Display aspect ratio : 16:9
Frame rate mode : Constant
Frame rate : 24.000 FPS
Color space : YUV
Chroma subsampling : 4:2:0 (Type 2)
Bit depth : 10 bits
Bits/(Pixel*Frame) : 0.122
Stream size : 22.7 GiB (93%)
Language : English
Default : Yes
Forced : No
Color range : Limited
Color primaries : BT.2020
Transfer characteristics : PQ
Matrix coefficients : BT.2020 non-constant
Mastering display color pri : Display P3
Mastering display luminance : min: 0.0001 cd/m2, max: 1000 cd/m2
Maximum Content Light Level : 749 cd/m2
Maximum Frame-Average Light : 555 cd/m2

Audio #1
ID : 2
Format : AC-3
Format/Info : Audio Coding 3
Commercial name : Dolby Digital
Codec ID : A_AC3
Duration : 2 h 13 min
Bit rate mode : Constant
Bit rate : 384 kb/s
Channel(s) : 6 channels
Channel layout : L R C LFE Ls Rs
Sampling rate : 48.0 kHz
Frame rate : 31.250 FPS (1536 SPF)
Compression mode : Lossy
Stream size : 366 MiB (1%)
Title : Dub [MovieDalen]
Language : Russian
Service kind : Complete Main
Default : Yes
Forced : No

Audio #2
ID : 3
Format : AC-3
Format/Info : Audio Coding 3
Commercial name : Dolby Digital
Codec ID : A_AC3
Duration : 2 h 15 min
Bit rate mode : Constant
Bit rate : 640 kb/s
Channel(s) : 6 channels
Channel layout : L R C LFE Ls Rs
Sampling rate : 48.0 kHz
Frame rate : 31.250 FPS (1536 SPF)
Compression mode : Lossy
Stream size : 622 MiB (2%)
Title : MVO [Newcomers]
Language : Russian
Service kind : Complete Main
Default : No
Forced : No

Audio #3
ID : 4
Format : E-AC-3 JOC
Format/Info : Enhanced AC-3 with Joint Object Coding
Commercial name : Dolby Digital Plus with Dolby Atmos
Codec ID : A_EAC3
Duration : 2 h 13 min
Bit rate mode : Constant
Bit rate : 768 kb/s
Channel(s) : 6 channels
Channel layout : L R C LFE Ls Rs
Sampling rate : 48.0 kHz
Frame rate : 31.250 FPS (1536 SPF)
Compression mode : Lossy
Stream size : 733 MiB (3%)
Title : Original
Language : English
Service kind : Complete Main
Default : No
Forced : No
Complexity index : 16
Number of dynamic objects : 15
Bed channel count : 1 channel
Bed channel configuration : LFE

Text #1
ID : 5
Format : UTF-8
Codec ID : S_TEXT/UTF8
Codec ID/Info : UTF-8 Plain Text
Duration : 1 h 58 min
Bit rate : 3 b/s
Frame rate : 0.011 FPS
Count of elements : 79
Stream size : 2.98 KiB (0%)
Title : Forced
Language : Russian
Default : Yes
Forced : No

Text #2
ID : 6
Format : UTF-8
Codec ID : S_TEXT/UTF8
Codec ID/Info : UTF-8 Plain Text
Duration : 2 h 2 min
Bit rate : 63 b/s
Frame rate : 0.193 FPS
Count of elements : 1416
Stream size : 57.3 KiB (0%)
Title : Full
Language : Russian
Default : No
Forced : No

Text #3
ID : 7
Format : UTF-8
Codec ID : S_TEXT/UTF8
Codec ID/Info : UTF-8 Plain Text
Duration : 1 h 7 min
Bit rate : 0 b/s
Frame rate : 0.002 FPS
Count of elements : 7
Stream size : 186 Bytes (0%)
Title : Forced [Newcomers]
Language : Russian
Default : No
Forced : No

Text #4
ID : 8
Format : UTF-8
Codec ID : S_TEXT/UTF8
Codec ID/Info : UTF-8 Plain Text
Duration : 1 h 12 min
Bit rate : 1 b/s
Frame rate : 0.011 FPS
Count of elements : 46
Stream size : 933 Bytes (0%)
Title : Forced
Language : English
Default : No
Forced : Yes

Text #5
ID : 9
Format : UTF-8
Codec ID : S_TEXT/UTF8
Codec ID/Info : UTF-8 Plain Text
Duration : 2 h 1 min
Bit rate : 42 b/s
Frame rate : 0.188 FPS
Count of elements : 1373
Stream size : 37.6 KiB (0%)
Title : Full
Language : English
Default : No
Forced : No

Text #6
ID : 10
Format : UTF-8
Codec ID : S_TEXT/UTF8
Codec ID/Info : UTF-8 Plain Text
Duration : 2 h 11 min
Bit rate : 62 b/s
Frame rate : 0.276 FPS
Count of elements : 2184
Stream size : 60.8 KiB (0%)
Title : SDH
Language : English
Default : No
Forced : No

Menu
00:00:00.000 : en:Chapter 01
00:03:35.791 : en:Chapter 02
00:09:57.833 : en:Chapter 03
00:14:55.291 : en:Chapter 04
00:18:41.375 : en:Chapter 05
00:24:18.041 : en:Chapter 06
00:30:27.625 : en:Chapter 07
00:33:48.916 : en:Chapter 08
00:37:38.458 : en:Chapter 09
00:42:26.208 : en:Chapter 10
00:46:18.791 : en:Chapter 11
00:50:13.000 : en:Chapter 12
00:54:21.166 : en:Chapter 13
00:59:09.333 : en:Chapter 14
01:04:13.458 : en:Chapter 15
01:09:47.458 : en:Chapter 16
01:14:54.000 : en:Chapter 17
01:20:11.250 : en:Chapter 18
01:28:34.708 : en:Chapter 19
01:32:33.291 : en:Chapter 20
01:37:47.458 : en:Chapter 21
01:41:31.416 : en:Chapter 22
01:46:34.750 : en:Chapter 23
01:50:00.583 : en:Chapter 24
01:53:10.541 : en:Chapter 25
02:00:48.375 : en:Chapter 26
02:03:23.958 : en:Chapter 27

Другие фильмы
У данной публикации пока нет комментариев.
Будь первым, оставь своё мнение в комментариях!
Информация
Посетители, находящиеся в группе Гости, не могут оставлять комментарии к данной публикации.
Самый популярный релиз недели
Донаты
Мы в соц. сетях / RSS

Лучшие релизы месяца
Лучшие SD недели
Лучшие 720p недели
Лучшие 1080p недели
Лучшие 4K недели
Вы недавно смотрели
Реклама
Последние комментарии
...

Bonzo

14 июня 2024 14:52

...

rmzshka

13 июня 2024 17:48

...

rmzshka

13 июня 2024 12:24

...

LisNick

13 июня 2024 08:45

...

SkySpirit

8 июня 2024 19:54

Реклама