+11

Неудержимые 4 / Expend4bles (2023) UHD BDRemux 2160p от селезень | 4K | HDR | Dolby Vision Profile 8 | D, P

Информация о фильме
Название: Неудержимые 4
Оригинальное название: Expend4bles
Год выхода: 2023
Жанр: боевик
Режиссер: Скотт Во
В ролях: Джейсон Стэйтем, Фифти Сент, Меган Фокс, Дольф Лундгрен, Тони Джа, Ико Увайс, Энди Гарсиа, Сильвестр Сталлоне, Рэнди Кутюр, Джейкоб Скипио

О фильме: Неудержимые несут потери: Барни Росс выбывает из строя, а Ли Кристмас отстранен от будущих операций. В команду набирают новых бойцов и отправляют возмещать ущерб. Но и они терпят поражение и попадают в плен. Теперь Ли Кристмас должен в одиночку пробраться в логово противника и освободить команду, попутно предотвратив глобальную катастрофу. Только так можно спасти мир и восстановить репутацию Неудержимых.

Страна: США
Студия: Campbell Grobman Films, Millennium Films
Продолжительность: 01:43:34
Перевод(ы):
#1: Дублированный | Велес
#2: Профессиональный многоголосый | TVShows


Качество: BDRemux 2160p
Видео: 3840x2160 at 23.976 fps, MPEG-H HEVC HDR Video, 67500 kbps avg
Аудио #01: 48 kHz, AC3, 5.1, 384 Kbps | Дублированный | Велес | RUS |Неудержимые 4 / Expend4bles (2023) UHD BDRemux 2160p от селезень | 4K | HDR | Dolby Vision Profile 8 | D, P
Аудио #02: 48 kHz, E-AC3, 5.1, 384 Kbps | Дублированный | Велес | RUS |
Аудио #03: 48 kHz, AC3, 5.1, 384 Kbps | Профессиональный многоголосый | TVShows | RUS |
Аудио #04: 48 kHz, TrueHD, 7.1, 4499 Kbps | Оригинал | ENG |
Аудио #05: 48 kHz, AC3, 5.1, 640 Kbps | Оригинал | ENG |
Субтитры: Русские (Forced, full), английские

Неудержимые 4 / Expend4bles (2023) UHD BDRemux 2160p от селезень | 4K | HDR | Dolby Vision Profile 8 | D, P

Авторизуйтесь для получения доступа к скачиванию

Нет аккаунта? Регистрация открыта и займёт меньше минуты

Вход Регистрация

General
Unique ID : 194468692961889981703534780481056002127 (0x924D4ED2AC4AD11CD50BAA0E65E3D04F)
Complete name : H:\VideoH\Expend4bles.2023.D.MVO.BDREMUX.2160p.HDR.DVP8.seleZen.mkv
Format : Matroska
Format version : Version 4
File size : 53.5 GiB
Duration : 1 h 43 min
Overall bit rate mode : Variable
Overall bit rate : 73.9 Mb/s
Frame rate : 23.976 FPS
Movie name : Expend4bles.2023.seleZen
Encoded date : 2023-11-20 22:05:20 UTC
Writing application : mkvmerge v79.0 ('Funeral Pyres') 64-bit
Writing library : libebml v1.4.4 + libmatroska v1.7.1

Video
ID : 1
ID in the original source m : 4117 (0x1015)
Format : HEVC
Format/Info : High Efficiency Video Coding
Format profile : Main [email protected]@High
HDR format : Dolby Vision, Version 1.0, dvhe.08.06, BL+RPU, Blu-ray compatible / SMPTE ST 2086, HDR10 compatible
Codec ID : V_MPEGH/ISO/HEVC
Duration : 1 h 43 min
Bit rate : 67.5 Mb/s
Width : 3 840 pixels
Height : 2 160 pixels
Display aspect ratio : 16:9
Frame rate mode : Constant
Frame rate : 23.976 (24000/1001) FPS
Color space : YUV
Chroma subsampling : 4:2:0 (Type 2)
Bit depth : 10 bits
Bits/(Pixel*Frame) : 0.340
Stream size : 48.9 GiB (91%)
Language : English
Default : No
Forced : No
Color range : Limited
Color primaries : BT.2020
Transfer characteristics : PQ
Matrix coefficients : BT.2020 non-constant
Mastering display color pri : Display P3
Mastering display luminance : min: 0.0050 cd/m2, max: 4000 cd/m2
Maximum Content Light Level : 1000 cd/m2
Maximum Frame-Average Light : 711 cd/m2
Original source medium : Blu-ray

Audio #1
ID : 2
Format : AC-3
Format/Info : Audio Coding 3
Commercial name : Dolby Digital
Codec ID : A_AC3
Duration : 1 h 43 min
Bit rate mode : Constant
Bit rate : 384 kb/s
Channel(s) : 6 channels
Channel layout : L R C LFE Ls Rs
Sampling rate : 48.0 kHz
Frame rate : 31.250 FPS (1536 SPF)
Compression mode : Lossy
Stream size : 284 MiB (1%)
Title : Dub
Language : Russian
Service kind : Complete Main
Default : Yes
Forced : No

Audio #2
ID : 3
Format : E-AC-3
Format/Info : Enhanced AC-3
Commercial name : Dolby Digital Plus
Codec ID : A_EAC3
Duration : 1 h 43 min
Bit rate mode : Constant
Bit rate : 384 kb/s
Channel(s) : 6 channels
Channel layout : L R C LFE Ls Rs
Sampling rate : 48.0 kHz
Frame rate : 31.250 FPS (1536 SPF)
Compression mode : Lossy
Stream size : 284 MiB (1%)
Title : Dub
Language : Russian
Service kind : Complete Main
Default : No
Forced : No

Audio #3
ID : 4
Format : AC-3
Format/Info : Audio Coding 3
Commercial name : Dolby Digital
Codec ID : A_AC3
Duration : 1 h 43 min
Bit rate mode : Constant
Bit rate : 384 kb/s
Channel(s) : 6 channels
Channel layout : L R C LFE Ls Rs
Sampling rate : 48.0 kHz
Frame rate : 31.250 FPS (1536 SPF)
Compression mode : Lossy
Stream size : 284 MiB (1%)
Title : MVO_TVShows
Language : Russian
Service kind : Complete Main
Default : No
Forced : No

Audio #4
ID : 5
Format : MLP FBA 16-ch
Format/Info : Meridian Lossless Packing FBA with 16-channel presentation
Commercial name : Dolby TrueHD with Dolby Atmos
Codec ID : A_TRUEHD
Duration : 1 h 43 min
Bit rate mode : Variable
Bit rate : 4 499 kb/s
Maximum bit rate : 7 071 kb/s
Channel(s) : 8 channels
Channel layout : L R C LFE Ls Rs Lb Rb
Sampling rate : 48.0 kHz
Frame rate : 1 200.000 FPS (40 SPF)
Compression mode : Lossless
Stream size : 3.25 GiB (6%)
Title : Original
Language : English
Default : No
Forced : No
Number of dynamic objects : 11
Bed channel count : 1 channel
Bed channel configuration : LFE

Audio #5
ID : 6
Format : AC-3
Format/Info : Audio Coding 3
Commercial name : Dolby Digital
Codec ID : A_AC3
Duration : 1 h 43 min
Bit rate mode : Constant
Bit rate : 640 kb/s
Channel(s) : 6 channels
Channel layout : L R C LFE Ls Rs
Sampling rate : 48.0 kHz
Frame rate : 31.250 FPS (1536 SPF)
Compression mode : Lossy
Stream size : 474 MiB (1%)
Language : English
Service kind : Complete Main
Default : No
Forced : No

Text #1
ID : 7
Format : UTF-8
Codec ID : S_TEXT/UTF8
Codec ID/Info : UTF-8 Plain Text
Duration : 1 h 20 min
Bit rate : 1 b/s
Frame rate : 0.005 FPS
Count of elements : 24
Stream size : 747 Bytes (0%)
Title : Forced
Language : Russian
Default : No
Forced : No

Text #2
ID : 8
Format : UTF-8
Codec ID : S_TEXT/UTF8
Codec ID/Info : UTF-8 Plain Text
Duration : 1 h 32 min
Bit rate : 84 b/s
Frame rate : 0.195 FPS
Count of elements : 1076
Stream size : 57.1 KiB (0%)
Title : Full_feofanio
Language : Russian
Default : No
Forced : No

Text #3
ID : 9
Format : UTF-8
Codec ID : S_TEXT/UTF8
Codec ID/Info : UTF-8 Plain Text
Duration : 56 min 40 s
Bit rate : 0 b/s
Frame rate : 0.001 FPS
Count of elements : 5
Stream size : 141 Bytes (0%)
Title : Forced
Language : English (US)
Default : No
Forced : No

Text #4
ID : 10
Format : UTF-8
Codec ID : S_TEXT/UTF8
Codec ID/Info : UTF-8 Plain Text
Duration : 1 h 32 min
Bit rate : 53 b/s
Frame rate : 0.206 FPS
Count of elements : 1148
Stream size : 36.6 KiB (0%)
Title : Full
Language : English (US)
Default : No
Forced : No

Text #5
ID : 11
Format : UTF-8
Codec ID : S_TEXT/UTF8
Codec ID/Info : UTF-8 Plain Text
Duration : 1 h 33 min
Bit rate : 58 b/s
Frame rate : 0.233 FPS
Count of elements : 1304
Stream size : 40.2 KiB (0%)
Title : SDH
Language : English (US)
Default : No
Forced : No

Menu
00:00:00.000 : en:Глава 01
00:06:06.491 : en:Глава 02
00:06:06.575 : en:Глава 03
00:10:57.907 : en:Глава 04
00:10:57.991 : en:Глава 05
00:15:56.539 : en:Глава 06
00:15:56.622 : en:Глава 07
00:23:44.715 : en:Глава 08
00:23:44.798 : en:Глава 09
00:28:35.589 : en:Глава 10
00:28:35.672 : en:Глава 11
00:34:40.120 : en:Глава 12
00:34:40.203 : en:Глава 13
00:40:43.775 : en:Глава 14
00:40:43.858 : en:Глава 15
00:46:45.011 : en:Глава 16
00:46:45.094 : en:Глава 17
00:50:27.107 : en:Глава 18
00:50:27.191 : en:Глава 19
00:56:33.056 : en:Глава 20
00:56:33.140 : en:Глава 21
01:00:41.596 : en:Глава 22
01:00:41.680 : en:Глава 23
01:07:44.644 : en:Глава 24
01:07:44.727 : en:Глава 25
01:15:15.970 : en:Глава 26
01:15:16.053 : en:Глава 27
01:23:17.242 : en:Глава 28
01:23:17.326 : en:Глава 29
01:30:56.993 : en:Глава 30
01:30:57.077 : en:Глава 31

Другие фильмы
У данной публикации пока нет комментариев.
Будь первым, оставь своё мнение в комментариях!
Информация
Посетители, находящиеся в группе Гости, не могут оставлять комментарии к данной публикации.
Самый популярный релиз недели
Донаты
Мы в соц. сетях / RSS

Лучшие релизы месяца
Лучшие SD недели
Лучшие 720p недели
Лучшие 1080p недели
Лучшие 4K недели
Вы недавно смотрели
Реклама
Последние комментарии
...

fataxdd

16 июля 2024 07:13

...

Rustik99

12 июля 2024 10:11

...

Rograr

6 июля 2024 19:56

...

fenix

2 июля 2024 07:45

...

Fidelrus

28 июня 2024 13:53

Реклама