+17

Дурные деньги / Dumb Money (2023) WEB-DLRip 720p от DoMiNo & селезень | P, A

Информация о фильме
Название: Дурные деньги
Оригинальное название: Dumb Money
Год выхода: 2023
Жанр: биография, комедия, драма
Режиссер: Крэйг Гиллеспи
В ролях: Сет Роген, Пол Дано, Себастьян Стэн, Пит Дэвидсон, Шейлин Вудли, Ник Офферман, Винсент Д`Онофрио, Клэнси Браун, Дэйн ДеХаан, Америка Феррера

О фильме:
Говорят, что миром правят деньги. А деньгами распоряжается Уолл-Стрит. И если на самом верху решили, что небольшая сеть магазинов видеоигр должна обанкротиться, то под это можно брать кредит в банке. Но однажды обычные люди сказали «нет» и дали бой мировым биржам. Геймеры, тик-токеры, домохозяйки и мелкие инвесторы принялись скупать акции и «сломали» Уолл-Стрит, попутно заработав дурные деньги.

Выпущено: США
Продолжительность: 01:45:00
Перевод #1: Профессиональный (многоголосый, закадровый) | TVShows
Перевод #2: Авторский (одноголосый закадровый) | М. Яроцкий | 18 +
Субтитры: Русские (Forced), Английские

Файл
Формат: Matroska
Качество: WEB-DLRip 720p
Видео: 1280x534 at 23.976 fps, [email protected], ~1963 kbps
Аудио 1: AC3, 6 ch, ~384 kbps - | Русский | Дурные деньги / Dumb Money (2023) WEB-DLRip 720p от DoMiNo & селезень | P, A | TVShows
Аудио 1: AC3, 6 ch, ~384 kbps - | Русский | | М. Яроцкий
Аудио 2: AC3, 6 ch, ~448 kbps - | Английский | | Original
Формат субтитров: softsub (SRT)

Авторизуйтесь для получения доступа к скачиванию

Нет аккаунта? Регистрация открыта и займёт меньше минуты

Вход Регистрация

x264 [info]: frame I: 1467 Avg QP: 14.37 size: 72969
x264 [info]: frame P: 34890 Avg QP: 16.34 size: 21438
x264 [info]: frame B: 114702 Avg QP: 18.49 size: 6027

General
Unique ID: 259451334835757384070533512758728848603 (0xC330826DBFD67B1B4FA801B80583F4DB)
Complete name: O: Dumb.Money.2023.P.A.WEB-DLRip.720p.x264.seleZen.mkv
Format: Matroska
Format version: Version 4
File size: 2.33 GiB
Duration: 1 h 45 min
Overall bit rate: 3 182 kb/s
Frame rate: 23.976 FPS
Movie name: Dumb.Money.2023.P.A.WEB-DLRip.720p.x264.seleZen
Encoded date: 22.11.2023 21:10:47 UTC
Writing application: mkvmerge v80.0 ('Roundabout') 64-bit
Writing library: libebml v1.4.4 + libmatroska v1.7.1
Cover: Yes
Attachments: cover.jpg / small_cover.jpg

Video
ID: 1
Format: AVC
Format/Info: Advanced Video Codec
Format profile: [email protected]
Format settings: CABAC / 5 Ref Frames
Format settings, CABAC: Yes
Format settings, Reference: 5 frames
Codec ID: V_MPEG4/ISO/AVC
Duration: 1 h 45 min
Bit rate: 1 963 kb/s
Width: 1 280 pixels
Height: 534 pixels
Display aspect ratio: 2.40:1
Frame rate mode: Constant
Frame rate: 23.976 (24000/1001) FPS
Color space: YUV
Chroma subsampling: 4:2:0
Bit depth: 8 bits
Scan type: Progressive
Bits/(Pixel*Frame): 0.120
Stream size: 1.44 GiB (62%)
Title: -=DoMiNo=-
Writing library: x264 core 164 r3156+57M dac90dd t_mod_New [(8 & 10)-DoMiNo- X86_64]
Encoding settings: cabac=1 / ref=5 / deblock=1:-1:-1 / analyse=0×3:0×133 / me=umh / subme=10 / psy=1 / fade_compensate=0.00 / psy_rd=1.00:0.00 / mixed_ref=1 / me_range=32 / chroma_me=1 / trellis=2 / 8×8dct=1 / cqm=0 / deadzone=21,11 / fast_pskip=0 / chroma_qp_offset=-2 / threads=17 / lookahead_threads=4 / sliced_threads=0 / nr=0 / decimate=1 / interlaced=0 / bluray_compat=0 / constrained_intra=0 / fgo=0 / bframes=12 / b_pyramid=2 / b_adapt=2 / b_bias=0 / direct=3 / weightb=1 / open_gop=0 / weightp=2 / keyint=250 / keyint_min=23 / scenecut=40 / intra_refresh=0 / rc_lookahead=60 / rc=crf / mbtree=0 / crf=18.8000 / qcomp=0.60 / qpmin=0:0:0 / qpmax=69:69:69 / qpstep=4 / vbv_maxrate=50000 / vbv_bufsize=62500 / crf_max=0.0 / nal_hrd=none / filler=0 / ip_ratio=1.40 / pb_ratio=1.30 / aq=3:0.90 / aq-sensitivity=10.00 / aq-factor=1.00:1.00:1.00:1.00 / aq2=0 / aq3=0
Language: English
Default: Yes
Forced: No
Color range: Limited
Matrix coefficients: BT.709

Audio #1
ID: 2
Format: AC-3
Format/Info: Audio Coding 3
Commercial name: Dolby Digital
Codec ID: A_AC3
Duration: 1 h 45 min
Bit rate mode: Constant
Bit rate: 384 kb/s
Channel (s): 6 channels
Channel layout: L R C LFE Ls Rs
Sampling rate: 48.0 kHz
Frame rate: 31.250 FPS (1536 SPF)
Compression mode: Lossy
Stream size: 288 MiB (12%)
Title: MVO TVShows
Language: Russian
Service kind: Complete Main
Default: Yes
Forced: No

Audio #2
ID: 3
Format: AC-3
Format/Info: Audio Coding 3
Commercial name: Dolby Digital
Codec ID: A_AC3
Duration: 1 h 45 min
Bit rate mode: Constant
Bit rate: 384 kb/s
Channel (s): 6 channels
Channel layout: L R C LFE Ls Rs
Sampling rate: 48.0 kHz
Frame rate: 31.250 FPS (1536 SPF)
Compression mode: Lossy
Stream size: 288 MiB (12%)
Title: М. Яроцкий 18+
Language: Russian
Service kind: Complete Main
Default: No
Forced: No

Audio #3
ID: 4
Format: AC-3
Format/Info: Audio Coding 3
Commercial name: Dolby Digital
Codec ID: A_AC3
Duration: 1 h 45 min
Bit rate mode: Constant
Bit rate: 448 kb/s
Channel (s): 6 channels
Channel layout: L R C LFE Ls Rs
Sampling rate: 48.0 kHz
Frame rate: 31.250 FPS (1536 SPF)
Compression mode: Lossy
Stream size: 336 MiB (14%)
Title: Original
Language: English
Service kind: Complete Main
Default: No
Forced: No

Text #1
ID: 5
Format: UTF-8
Codec ID: S_TEXT/UTF8
Codec ID/Info: UTF-8 Plain Text
Duration: 1 h 37 min
Bit rate: 14 b/s
Frame rate: 0.030 FPS
Count of elements: 173
Stream size: 10.00 KiB (0%)
Title: Forced
Language: Russian
Default: No
Forced: No

Text #2
ID: 6
Format: UTF-8
Codec ID: S_TEXT/UTF8
Codec ID/Info: UTF-8 Plain Text
Duration: 1 h 40 min
Bit rate: 103 b/s
Frame rate: 0.318 FPS
Count of elements: 1914
Stream size: 75.9 KiB (0%)
Language: English
Default: No
Forced: No

Text #3
ID: 7
Format: UTF-8
Codec ID: S_TEXT/UTF8
Codec ID/Info: UTF-8 Plain Text
Duration: 1 h 41 min
Bit rate: 108 b/s
Frame rate: 0.332 FPS
Count of elements: 2018
Stream size: 80.3 KiB (0%)
Title: SDH
Language: English
Default: No
Forced: No

Text #4
ID: 8
Format: UTF-8
Codec ID: S_TEXT/UTF8
Codec ID/Info: UTF-8 Plain Text
Duration: 1 min 10 s
Bit rate: 33 b/s
Frame rate: 0.184 FPS
Count of elements: 13
Stream size: 298 Bytes (0%)
Title: Forced
Language: English
Default: No
Forced: No

Menu
00:00:00.000: en: Studio Logo
00:01:04.980: en: Scene 2
00:02:04.980: en: Scene 3
00:02:59.980: en: Scene 4
00:03:44.980: en: Scene 5
00:04:25.980: en: Title Sequence
00:04:32.980: en: Scene 7
00:06:00.980: en: Scene 8
00:08:20.980: en: Scene 9
00:10:27.980: en: Scene 10
00:14:33.980: en: Scene 11
00:16:18.980: en: Scene 12
00:16:52.980: en: Scene 13
00:18:32.980: en: Scene 14
00:19:00.980: en: Scene 15
00:19:38.980: en: Scene 16
00:19:57.980: en: Scene 17
00:21:25.980: en: Scene 18
00:21:43.980: en: Scene 19
00:22:31.980: en: Scene 20
00:23:17.980: en: Scene 21
00:24:40.980: en: Scene 22
00:25:41.980: en: Scene 23
00:26:40.980: en: Scene 24
00:28:19.980: en: Scene 25
00:28:47.980: en: Scene 26
00:29:41.980: en: Scene 27
00:30:16.980: en: Scene 28
00:32:24.980: en: Scene 29
00:33:24.980: en: Scene 30
00:34:45.980: en: Scene 31
00:35:10.980: en: Scene 32
00:37:28.980: en: Scene 33
00:39:03.980: en: Scene 34
00:40:29.980: en: Scene 35
00:43:58.980: en: Scene 36
00:44:19.980: en: Scene 37
00:44:50.980: en: Scene 38
00:45:54.980: en: Scene 39
00:46:31.980: en: Scene 40
00:46:58.980: en: Scene 41
00:47:51.980: en: Scene 42
00:48:29.980: en: Scene 43
00:50:44.980: en: Scene 44
00:51:37.980: en: Scene 45
00:52:16.980: en: Scene 46
00:52:47.980: en: Scene 47
00:53:06.980: en: Scene 48
00:55:53.980: en: Scene 49
00:56:29.980: en: Scene 50
00:57:05.980: en: Scene 51
00:57:48.980: en: Scene 52
01:00:13.980: en: Scene 53
01:00:40.980: en: Scene 54
01:01:22.980: en: Scene 55
01:02:49.980: en: Scene 56
01:04:32.980: en: Scene 57
01:06:33.980: en: Scene 58
01:07:14.980: en: Scene 59
01:08:14.980: en: Scene 60
01:09:00.980: en: Scene 61
01:09:28.980: en: Scene 62
01:10:17.980: en: Scene 63
01:10:41.980: en: Scene 64
01:12:55.980: en: Scene 65
01:13:34.980: en: Scene 66
01:14:49.980: en: Scene 67
01:15:26.980: en: Scene 68
01:17:51.980: en: Scene 69
01:18:42.980: en: Scene 70
01:19:20.980: en: Scene 71
01:20:02.980: en: Scene 72
01:21:25.980: en: Scene 73
01:22:17.980: en: Scene 74
01:23:28.980: en: Scene 75
01:24:28.980: en: Scene 76
01:25:00.980: en: Scene 77
01:25:53.980: en: Scene 78
01:26:27.980: en: Scene 79
01:27:06.980: en: Scene 80
01:28:17.980: en: Scene 81
01:28:55.980: en: Scene 82
01:30:29.980: en: Scene 83
01:32:02.980: en: Scene 84
01:33:37.980: en: Scene 85
01:34:23.980: en: End Credits

Другие фильмы
У данной публикации пока нет комментариев.
Будь первым, оставь своё мнение в комментариях!
Информация
Посетители, находящиеся в группе Гости, не могут оставлять комментарии к данной публикации.
Самый популярный релиз недели
Донаты
Мы в соц. сетях / RSS

Лучшие релизы месяца
Лучшие SD недели
Лучшие 720p недели
Лучшие 1080p недели
Лучшие 4K недели
Вы недавно смотрели
Реклама
Последние комментарии
...

fataxdd

16 июля 2024 07:13

...

Rustik99

12 июля 2024 10:11

...

Rograr

6 июля 2024 19:56

...

fenix

2 июля 2024 07:45

...

Fidelrus

28 июня 2024 13:53

Реклама