+8

Лицо со шрамом / Scarface (1983) HDRip-AVC от DoMiNo & селезень | D, P, А

Информация о фильме
Название: Лицо со шрамом
Оригинальное название: Scarface
Год выхода: 1983
Жанр: Триллер, драма, криминал
Режиссер: Брайан Де Пальма
В ролях: Аль Пачино, Стивен Бауэр, Мишель Пфайффер, Мэри Элизабет Мастрантонио, Роберт Лоджа, Мириам Колон, Ф. Мюррэй Абрахам, Пол Шенар, Харрис Юлин, Анхель Салазар, Арнальдо Сантана, Пепе Серна, Майкл П. Моран, Эл Израэл, Дэннис Холахан, Марк Марголис, Майкл Олдредж, Тед Бениадес, Ричард Белцер, Пол Эспел, Джон Брэндон, Тони Перез, Гарнетт Смит, Лорен Альмагир, Джил Баррето, Хизер Бенна, Сью Баузер, Тина Ли Камерон, Виктор Кампос, Роберт Хаммер Каэннердей, Рене Карраско, Альберт Кэрриэр, Джон Картер, Ричард Каселнова, Гэри Сервантес, Карлос Кестеро, Джонни Контардо, Роберто Контрерас, Сизар Кордова, Грегори Норман Круз

О фильме:
Весной 1980 года был открыт порт Мэйриэл Харбор, и тысячи кубинских беженцев ринулись в Соединённые Штаты на поиски Американской Мечты. Один из них нашёл её на залитых солнцем улицах Майами. Богатство, власть и страсть превзошли даже самые невероятные его мечты. Его звали Тони Монтана. Мир запомнил его под другим именем — «Лицо со шрамом»…

Страна: США
Студия: Universal Pictures
Продолжительность: 02:50:00
Перевод: Профессиональный (дублированный) | Voize - (2022)
Перевод: Профессиональный (многоголосый, закадровый) | Позитив-Мультимедиа
Перевод: Профессиональный (многоголосый, закадровый) | Blu-ray CEE
Перевод: Авторский (одноголосый, закадровый) | Д. Пучков
Субтитры: Русские (Full -ненормативная лексика), английские

Файл
Формат: Matroska
Качество: HDRip-AVC
Видео: 1024x436 at 23.976 fps, [email protected], ~2439 kbps
Аудио 1: AC3, 2 ch, ~192 kbps - | Русский | Лицо со шрамом / Scarface (1983) HDRip-AVC от DoMiNo & селезень | D, P, А | Дублированнный
Аудио 2: AC3, 6 ch, ~448 kbps - | Русский | | Позитив-Мультимедиа
Аудио 3: AC3, 2 ch, ~192 kbps - | Русский | | Blu-ray CEE
Аудио 4: AC3, 6 ch, ~448 kbps - | Русский | | Д. Пучков
Аудио 5: AC3, 6 ch, ~448 kbps - | Английский | | Original
Формат субтитров: softsub (SRT)

Авторизуйтесь для получения доступа к скачиванию

Нет аккаунта? Регистрация открыта и займёт меньше минуты

Вход Регистрация

General
Unique ID: 105505564371012563446339627948550679492 (0×4F5FA1F03FC710721EA680BEDB406BC4)
Complete name: R: Scarface.1983.x264.seleZen.mkv
Format: Matroska
Format version: Version 4
File size: 4.95 GiB
Duration: 2 h 50 min
Overall bit rate: 4 170 kb/s
Frame rate: 23.976 FPS
Movie name: Scarface.1983.x264.seleZen
Encoded date: 20.11.2023 15:42:46 UTC
Writing application: mkvmerge v80.0 ('Roundabout') 64-bit
Writing library: libebml v1.4.4 + libmatroska v1.7.1
Cover: Yes
Attachments: cover.jpg / small_cover.jpg

Video
ID: 1
Format: AVC
Format/Info: Advanced Video Codec
Format profile: [email protected]
Format settings: CABAC / 12 Ref Frames
Format settings, CABAC: Yes
Format settings, Reference: 12 frames
Codec ID: V_MPEG4/ISO/AVC
Duration: 2 h 50 min
Bit rate: 2 439 kb/s
Width: 1 024 pixels
Height: 436 pixels
Display aspect ratio: 2.35:1
Frame rate mode: Constant
Frame rate: 23.976 (24000/1001) FPS
Color space: YUV
Chroma subsampling: 4:2:0
Bit depth: 8 bits
Scan type: Progressive
Bits/(Pixel*Frame): 0.228
Stream size: 2.90 GiB (58%)
Title: -=DoMiNo=-
Writing library: x264 core 164 r3164 _DoMiNo
Encoding settings: cabac=1 / ref=12 / deblock=1:-1:-1 / analyse=0×3:0×133 / me=umh / subme=10 / psy=1 / psy_rd=1.01:0.02 / mixed_ref=1 / me_range=32 / chroma_me=1 / trellis=2 / 8×8dct=1 / cqm=0 / deadzone=21,11 / fast_pskip=0 / chroma_qp_offset=-3 / threads=17 / lookahead_threads=3 / sliced_threads=0 / nr=0 / decimate=0 / interlaced=0 / bluray_compat=0 / constrained_intra=0 / bframes=12 / b_pyramid=2 / b_adapt=2 / b_bias=0 / direct=3 / weightb=1 / open_gop=0 / weightp=2 / keyint=250 / keyint_min=23 / scenecut=40 / intra_refresh=0 / rc_lookahead=60 / rc=crf / mbtree=0 / crf=19.5 / qcomp=0.60 / qpmin=0 / qpmax=69 / qpstep=4 / vbv_maxrate=50000 / vbv_bufsize=62500 / crf_max=0.0 / nal_hrd=none / filler=0 / ip_ratio=1.40 / pb_ratio=1.30 / aq=1:1.00
Language: English
Default: Yes
Forced: No

Audio #1
ID: 2
Format: AC-3
Format/Info: Audio Coding 3
Commercial name: Dolby Digital
Codec ID: A_AC3
Duration: 2 h 50 min
Bit rate mode: Constant
Bit rate: 192 kb/s
Channel (s): 2 channels
Channel layout: L R
Sampling rate: 48.0 kHz
Frame rate: 31.250 FPS (1536 SPF)
Compression mode: Lossy
Stream size: 233 MiB (5%)
Title: Дубляж
Language: Russian
Service kind: Complete Main
Default: Yes
Forced: No

Audio #2
ID: 3
Format: AC-3
Format/Info: Audio Coding 3
Commercial name: Dolby Digital
Codec ID: A_AC3
Duration: 2 h 50 min
Bit rate mode: Constant
Bit rate: 448 kb/s
Channel (s): 6 channels
Channel layout: L R C LFE Ls Rs
Sampling rate: 48.0 kHz
Frame rate: 31.250 FPS (1536 SPF)
Compression mode: Lossy
Stream size: 545 MiB (11%)
Title: Позитив-Мультимедиа
Language: Russian
Service kind: Complete Main
Default: No
Forced: No

Audio #3
ID: 4
Format: AC-3
Format/Info: Audio Coding 3
Commercial name: Dolby Digital
Codec ID: A_AC3
Duration: 2 h 50 min
Bit rate mode: Constant
Bit rate: 192 kb/s
Channel (s): 2 channels
Channel layout: L R
Sampling rate: 48.0 kHz
Frame rate: 31.250 FPS (1536 SPF)
Compression mode: Lossy
Stream size: 233 MiB (5%)
Title: Blu-ray CEE
Language: Russian
Service kind: Complete Main
Default: No
Forced: No

Audio #4
ID: 5
Format: AC-3
Format/Info: Audio Coding 3
Commercial name: Dolby Digital
Codec ID: A_AC3
Duration: 2 h 50 min
Bit rate mode: Constant
Bit rate: 448 kb/s
Channel (s): 6 channels
Channel layout: L R C LFE Ls Rs
Sampling rate: 48.0 kHz
Frame rate: 31.250 FPS (1536 SPF)
Compression mode: Lossy
Stream size: 545 MiB (11%)
Title: Д. Пучков
Language: Russian
Service kind: Complete Main
Default: No
Forced: No

Audio #5
ID: 6
Format: AC-3
Format/Info: Audio Coding 3
Commercial name: Dolby Digital
Codec ID: A_AC3
Duration: 2 h 50 min
Bit rate mode: Constant
Bit rate: 448 kb/s
Channel (s): 6 channels
Channel layout: L R C LFE Ls Rs
Sampling rate: 48.0 kHz
Frame rate: 31.250 FPS (1536 SPF)
Compression mode: Lossy
Stream size: 545 MiB (11%)
Title: Оригинал
Language: English
Service kind: Complete Main
Default: No
Forced: No

Text #1
ID: 7
Format: UTF-8
Codec ID: S_TEXT/UTF8
Codec ID/Info: UTF-8 Plain Text
Duration: 2 h 44 min
Bit rate: 108 b/s
Frame rate: 0.206 FPS
Count of elements: 2029
Stream size: 130 KiB (0%)
Title: Full
Language: Russian
Default: No
Forced: No

Text #2
ID: 8
Format: UTF-8
Codec ID: S_TEXT/UTF8
Codec ID/Info: UTF-8 Plain Text
Duration: 2 h 43 min
Bit rate: 58 b/s
Frame rate: 0.247 FPS
Count of elements: 2434
Stream size: 70.7 KiB (0%)
Title: Full
Language: English
Default: No
Forced: No

Menu
00:00:00.000: en: A Politcal Prisoner (Main Titles)
00:08:11.574: en: Freedom Town
00:10:55.237: en: A Killing For A Green Card
00:13:40.194: en: The Good Life
00:15:43.025: en: A New Job
00:20:58.298: en: Colombians And Chain Saws
00:29:51.289: en: Mr. Lopez
00:33:09.362: en: Elvira
00:34:42.538: en: A Night In Babylon
00:43:13.172: en: How To Pick Up Girls
00:46:46.053: en: Going In Style
00:50:45.250: en: The Prodigal Returns
00:59:02.705: en: The Drug Lord
01:04:15.643: en: Revenge
01:08:20.470: en: Serious Money
01:12:57.539: en: A Proposal
01:17:17.841: en: Shakedown
01:23:33.133: en: Brothery Love
01:28:48.323: en: Two Guns For Tony
01:33:44.243: en: A Hostile Takeover
01:43:31.496: en: Prosperity
01:47:01.706: en: Laundry Bills
01:51:48.410: en: Philosophy In The Bathtub
01:57:19.991: en: The Cost Of Doing Business
02:02:43.105: en: Problems And Solutions
02:07:08.203: en: Dinner Conversation
02:13:58.405: en: Prelude To Murder
02:16:04.447: en: No Women And Children
02:21:46.080: en: Severing Business Ties
02:24:22.779: en: The End Of The Honeymoon
02:30:37.861: en: Preparing For War
02:35:14.888: en: Gina’s Offering
02:37:33.067: en: Siege
02:40:04.303: en: Montana’s Last Stand
02:43:20.999: en: End Titles
02:49:59.897: en: {empty chapter}

Другие фильмы
У данной публикации пока нет комментариев.
Будь первым, оставь своё мнение в комментариях!
Информация
Посетители, находящиеся в группе Гости, не могут оставлять комментарии к данной публикации.
Самый популярный релиз недели
Донаты
Мы в соц. сетях / RSS

Лучшие релизы месяца
Лучшие SD недели
Лучшие 720p недели
Лучшие 1080p недели
Лучшие 4K недели
Вы недавно смотрели
Реклама
Последние комментарии
...

Bonzo

14 июня 2024 14:52

...

rmzshka

13 июня 2024 17:48

...

rmzshka

13 июня 2024 12:24

...

LisNick

13 июня 2024 08:45

...

SkySpirit

8 июня 2024 19:54

Реклама