+3

Создатель / The Creator (2023) BDRemux 1080p от селезень | D

Информация о фильме
Название: Создатель
Оригинальное название: The Creator
Год выхода: 2023
Жанр: фантастика, боевик, драма
Режиссер: Гарет Эдвардс
В ролях: Джон Дэвид Вашингтон, Мэделин Юна Войлс, Джемма Чан, Эллисон Дженни, Кэн Ватанабэ, Стерджил Симпсон, Амер Чадха-Пател, Марк Менчака, Робби Танн, Ральф Айнесон

О фильме: Повсеместное применение искусственного интеллекта привело к тому, что в Лос-Анджелесе произошёл ядерный взрыв. С тех пор коллективный Запад во главе с США ведёт непримиримую войну на уничтожение ИИ, но блок стран Юго-Восточной Азии - Новая Азия - живёт в гармонии с роботами и сдаваться не собирается. В 2065 году спецназовец Джошуа находился в тылу врага, с целью отыскать главного создателя ИИ, известного под именем Нирмата, и втёрся в доверие настолько, что женился на учёной Майе и с нетерпением ждал рождения ребёнка. Но во время нападения американцев и ракетного удара главной надежды Запада на победу - военной орбитальной станции NOMAD - его жена погибла.
Пять лет спустя Джошуа вынужден вернуться в Новую Азию, чтобы помочь отряду военных найти Нирмату и его лабораторию, где, по данным разведки, разработано новейшее оружие, способное уничтожить NOMAD.


Страна: США
Студия: 20th Century Studios, Regency Television
Продолжительность: 02:13:29
Перевод: Дублированный | MovieDalen

Качество: BDRemux 1080p
Видео: MPEG-4 AVC, 1920x1080, 31600 Кbit/s, 23.976 fps
Аудио #01: 48 kHz, AC3, 5.1, 384 Kbps | Дублированный | MovieDalen | RUS |Создатель / The Creator (2023) BDRemux 1080p от селезень | D
Аудио #02: 48 kHz, DTS-HD MA, 7.1, 4680 Kbps | Оригинал | ENG |
Субтитры: Русские (Forced, full), английские

Создатель / The Creator (2023) BDRemux 1080p от селезень | D

Авторизуйтесь для получения доступа к скачиванию

Нет аккаунта? Регистрация открыта и займёт меньше минуты

Вход Регистрация

General
Unique ID : 337221055043927145443479277922418168968 (0xFDB269ABDD55EB463433066BA4181488)
Complete name : H:\VideoH\The.Creator.2023.BDREMUX.1080p.seleZen.mkv
Format : Matroska
Format version : Version 4
File size : 34.2 GiB
Duration : 2 h 13 min
Overall bit rate mode : Variable
Overall bit rate : 36.7 Mb/s
Frame rate : 23.976 FPS
Movie name : The Creator (2023) from seleZen
Encoded date : 2023-12-06 21:25:20 UTC
Writing application : mkvmerge v80.0 ('Roundabout') 64-bit
Writing library : libebml v1.4.4 + libmatroska v1.7.1

Video
ID : 1
Format : AVC
Format/Info : Advanced Video Codec
Format profile : [email protected]
Format settings : CABAC / 4 Ref Frames
Format settings, CABAC : Yes
Format settings, Reference : 4 frames
Codec ID : V_MPEG4/ISO/AVC
Duration : 2 h 13 min
Bit rate mode : Variable
Bit rate : 31.6 Mb/s
Maximum bit rate : 37.5 Mb/s
Width : 1 920 pixels
Height : 1 080 pixels
Display aspect ratio : 16:9
Frame rate mode : Constant
Frame rate : 23.976 (24000/1001) FPS
Color space : YUV
Chroma subsampling : 4:2:0
Bit depth : 8 bits
Scan type : Progressive
Bits/(Pixel*Frame) : 0.636
Time code of first frame : 00:59:59:00
Stream size : 29.5 GiB (86%)
Language : English
Default : No
Forced : No

Audio #1
ID : 2
Format : AC-3
Format/Info : Audio Coding 3
Commercial name : Dolby Digital
Codec ID : A_AC3
Duration : 2 h 13 min
Bit rate mode : Constant
Bit rate : 384 kb/s
Channel(s) : 6 channels
Channel layout : L R C LFE Ls Rs
Sampling rate : 48.0 kHz
Frame rate : 31.250 FPS (1536 SPF)
Compression mode : Lossy
Stream size : 367 MiB (1%)
Title : Dub_MovieDalen
Language : Russian
Service kind : Complete Main
Default : Yes
Forced : No

Audio #2
ID : 3
Format : DTS XLL
Format/Info : Digital Theater Systems
Commercial name : DTS-HD Master Audio
Codec ID : A_DTS
Duration : 2 h 13 min
Bit rate mode : Variable
Bit rate : 4 680 kb/s
Channel(s) : 8 channels
Channel layout : C L R LFE Lb Rb Lss Rss
Sampling rate : 48.0 kHz
Frame rate : 93.750 FPS (512 SPF)
Bit depth : 24 bits
Compression mode : Lossless
Stream size : 4.36 GiB (13%)
Title : Original
Language : English
Default : No
Forced : No

Text #1
ID : 4
Format : UTF-8
Codec ID : S_TEXT/UTF8
Codec ID/Info : UTF-8 Plain Text
Duration : 1 h 58 min
Bit rate : 3 b/s
Frame rate : 0.011 FPS
Count of elements : 79
Stream size : 2.98 KiB (0%)
Title : Forced
Language : Russian
Default : Yes
Forced : No

Text #2
ID : 5
Format : UTF-8
Codec ID : S_TEXT/UTF8
Codec ID/Info : UTF-8 Plain Text
Duration : 2 h 2 min
Bit rate : 63 b/s
Frame rate : 0.193 FPS
Count of elements : 1416
Stream size : 57.3 KiB (0%)
Title : Full
Language : Russian
Default : No
Forced : No

Text #3
ID : 6
Format : UTF-8
Codec ID : S_TEXT/UTF8
Codec ID/Info : UTF-8 Plain Text
Duration : 1 h 12 min
Bit rate : 1 b/s
Frame rate : 0.011 FPS
Count of elements : 46
Stream size : 933 Bytes (0%)
Title : Forced
Language : English
Default : No
Forced : No

Text #4
ID : 7
Format : UTF-8
Codec ID : S_TEXT/UTF8
Codec ID/Info : UTF-8 Plain Text
Duration : 2 h 2 min
Bit rate : 42 b/s
Frame rate : 0.187 FPS
Count of elements : 1373
Stream size : 37.6 KiB (0%)
Title : Full
Language : English
Default : No
Forced : No

Text #5
ID : 8
Format : UTF-8
Codec ID : S_TEXT/UTF8
Codec ID/Info : UTF-8 Plain Text
Duration : 2 h 12 min
Bit rate : 62 b/s
Frame rate : 0.276 FPS
Count of elements : 2184
Stream size : 60.8 KiB (0%)
Title : SDH
Language : English
Default : No
Forced : No

Menu
00:00:00.000 : en:Глава 01
00:03:36.007 : en:Глава 02
00:09:58.431 : en:Глава 03
00:14:56.187 : en:Глава 04
00:18:42.496 : en:Глава 05
00:24:19.500 : en:Глава 06
00:30:29.453 : en:Глава 07
00:33:50.946 : en:Глава 08
00:37:40.717 : en:Глава 09
00:42:28.755 : en:Глава 10
00:46:21.570 : en:Глава 11
00:50:16.013 : en:Глава 12
00:54:24.428 : en:Глава 13
00:59:12.883 : en:Глава 14
01:04:17.312 : en:Глава 15
01:09:51.646 : en:Глава 16
01:14:58.494 : en:Глава 17
01:20:16.061 : en:Глава 18
01:28:40.023 : en:Глава 19
01:32:38.845 : en:Глава 20
01:37:53.326 : en:Глава 21
01:41:37.508 : en:Глава 22
01:46:41.145 : en:Глава 23
01:50:07.184 : en:Глава 24
01:53:17.332 : en:Глава 25
02:00:55.623 : en:Глава 26
02:03:31.362 : en:Глава 27

Другие фильмы
У данной публикации пока нет комментариев.
Будь первым, оставь своё мнение в комментариях!
Информация
Посетители, находящиеся в группе Гости, не могут оставлять комментарии к данной публикации.
Самый популярный релиз недели
Донаты
Мы в соц. сетях / RSS

Лучшие релизы месяца
Лучшие SD недели
Лучшие 720p недели
Лучшие 1080p недели
Лучшие 4K недели
Вы недавно смотрели
Реклама
Последние комментарии
...

korelov

23 февраля 2024 14:35

...

Desol

21 февраля 2024 00:28

...

diabloq

20 февраля 2024 14:17

...

slightlymad

17 февраля 2024 21:01

...

takezi

15 февраля 2024 22:10

Реклама