+12

В поисках зверя / Butcher's Crossing (2022) BDRip 1080p от селезень | P

Информация о фильме
Название: В поисках зверя
Оригинальное название: Butcher's Crossing
Год выхода: 2022
Жанр: драма, вестерн
Режиссер: Гейб Польски
В ролях: Николас Кейдж, Рэйчел Келлер, Ксандер Беркли, Фред Хехингер, Джереми Бобб, Пол Рэйси, Zuzu Weingart, Эмбер Мэйсон, Duncan Vezain, Джефф Мэдли

О фильме:
1874 год. Наивный юноша Уилл Эндрюс бросает учебу в Гарварде, чтобы путешествовать по стране и почувствовать настоящую жизнь. Прибыв в Канзас, он решает отправиться в Скалистые горы Колорадо вместе с охотниками на бизонов. Уилл не умеет убивать и снимать шкуры, но он полон мальчишеского энтузиазма и достаточно богат, чтобы оплатить всю экспедицию. Команду возглавляет загадочный охотник Миллер. Он единственный знает путь в таинственную долину, где пасутся тысячи зверей с более толстыми и дорогостоящими шкурами.

Страна: США
Продолжительность: 01:47:25
Перевод: Профессиональный многоголосый (официальный) | Кипарис
Субтитры: Русские, английские

Файл
Формат: Matroska
Качество: BDRip 1080p
Видео: 1920x960 at 23.976 fps, [email protected], ~12000 kbps
Аудио 1: AC3, 6 ch, ~384 kbps - | Русский | В поисках зверя / Butcher's Crossing (2022) BDRip 1080p от селезень | P
Аудио 2: E-AC3, 6 ch, ~1024 kbps - | Английский |
Формат субтитров: softsub (SRT)

Авторизуйтесь для получения доступа к скачиванию

Нет аккаунта? Регистрация открыта и займёт меньше минуты

Вход Регистрация

General
Unique ID : 174857595401535565608208188933576317789 (0x838C590FE43FAA10BFEE0FECEB9BDB5D)
Complete name : R:Butchers.Crossing.2022.MVO.BDRip.1080p.x264.seleZen.mkv
Format : Matroska
Format version : Version 4
File size : 10.1 GiB
Duration : 1 h 47 min
Overall bit rate : 13.4 Mb/s
Frame rate : 23.976 FPS
Movie name : Butchers.Crossing.2022.MVO.BDRip.1080p.x264.seleZen
Encoded date : 2024-01-14 06:49:43 UTC
Writing application : mkvmerge v82.0 ('I'm The President') 64-bit
Writing library : libebml v1.4.5 + libmatroska v1.7.1
Cover : Yes
Attachments : cover.jpg / small_cover.jpg

Video
ID : 1
Format : AVC
Format/Info : Advanced Video Codec
Format profile : [email protected]
Format settings : CABAC / 4 Ref Frames
Format settings, CABAC : Yes
Format settings, Reference : 4 frames
Codec ID : V_MPEG4/ISO/AVC
Duration : 1 h 47 min
Bit rate : 12.0 Mb/s
Width : 1 920 pixels
Height : 960 pixels
Display aspect ratio : 2.000
Frame rate mode : Constant
Frame rate : 23.976 (24000/1001) FPS
Color space : YUV
Chroma subsampling : 4:2:0
Bit depth : 8 bits
Scan type : Progressive
Bits/(Pixel*Frame) : 0.272
Stream size : 9.02 GiB (89%)
Title : ZoroSenpai
Writing library : x264 core 164 r3107+58M ae98796 t_mod_New [(8 & 10)-bit@all X86_64]
Encoding settings : cabac=1 / ref=4 / deblock=1:-2:-2 / analyse=0x3:0x133 / me=umh / subme=11 / psy=1 / fade_compensate=0.00 / psy_rd=1.02:0.00 / mixed_ref=1 / me_range=36 / chroma_me=1 / trellis=2 / 8x8dct=1 / cqm=0 / deadzone=21,11 / fast_pskip=0 / chroma_qp_offset=-2 / threads=30 / lookahead_threads=7 / sliced_threads=0 / nr=0 / decimate=0 / interlaced=0 / bluray_compat=0 / constrained_intra=0 / fgo=0 / bframes=16 / b_pyramid=2 / b_adapt=2 / b_bias=0 / direct=3 / weightb=1 / open_gop=0 / weightp=2 / keyint=250 / keyint_min=23 / scenecut=40 / intra_refresh=0 / rc_lookahead=240 / rc=crf / mbtree=0 / crf=18.8000 / qcomp=0.60 / qpmin=0:0:0 / qpmax=69:69:69 / qpstep=4 / vbv_maxrate=62500 / vbv_bufsize=78125 / crf_max=0.0 / nal_hrd=none / filler=0 / ip_ratio=1.40 / pb_ratio=1.30 / aq=3:0.70 / aq-sensitivity=10.00 / aq-factor=1.00:1.00:1.00:1.00 / aq2=0 / aq3=0
Language : English
Default : Yes
Forced : No
Color range : Limited
Color primaries : BT.709
Transfer characteristics : BT.709
Matrix coefficients : BT.709

Audio #1
ID : 2
Format : AC-3
Format/Info : Audio Coding 3
Commercial name : Dolby Digital
Codec ID : A_AC3
Duration : 1 h 47 min
Bit rate mode : Constant
Bit rate : 384 kb/s
Channel(s) : 6 channels
Channel layout : L R C LFE Ls Rs
Sampling rate : 48.0 kHz
Frame rate : 31.250 FPS (1536 SPF)
Compression mode : Lossy
Stream size : 295 MiB (3%)
Title : MVO -Кипарис
Language : Russian
Service kind : Complete Main
Default : Yes
Forced : No

Audio #2
ID : 3
Format : E-AC-3
Format/Info : Enhanced AC-3
Commercial name : Dolby Digital Plus
Codec ID : A_EAC3
Duration : 1 h 47 min
Bit rate mode : Constant
Bit rate : 1 024 kb/s
Channel(s) : 6 channels
Channel layout : L R C LFE Ls Rs
Sampling rate : 48.0 kHz
Frame rate : 31.250 FPS (1536 SPF)
Compression mode : Lossy
Stream size : 787 MiB (8%)
Language : English
Service kind : Complete Main
Default : No
Forced : No

Text #1
ID : 4
Format : UTF-8
Codec ID : S_TEXT/UTF8
Codec ID/Info : UTF-8 Plain Text
Duration : 1 h 42 min
Bit rate : 53 b/s
Frame rate : 0.138 FPS
Count of elements : 852
Stream size : 40.5 KiB (0%)
Title : Full
Language : Russian
Default : No
Forced : No

Text #2
ID : 5
Format : UTF-8
Codec ID : S_TEXT/UTF8
Codec ID/Info : UTF-8 Plain Text
Duration : 1 h 38 min
Bit rate : 35 b/s
Frame rate : 0.167 FPS
Count of elements : 990
Stream size : 25.9 KiB (0%)
Language : English (US)
Default : No
Forced : No

Text #3
ID : 6
Format : UTF-8
Codec ID : S_TEXT/UTF8
Codec ID/Info : UTF-8 Plain Text
Duration : 1 h 45 min
Bit rate : 41 b/s
Frame rate : 0.251 FPS
Count of elements : 1584
Stream size : 32.2 KiB (0%)
Title : SDH
Language : English (US)
Default : No
Forced : No

Menu
00:00:00.000 : en:Scene 1
00:04:30.000 : en:Scene 2
00:05:33.000 : en:Scene 3
00:07:55.000 : en:Scene 4
00:10:27.000 : en:Scene 5
00:12:23.000 : en:Scene 6
00:13:48.000 : en:Scene 7
00:17:32.000 : en:Scene 8
00:19:41.000 : en:Scene 9
00:20:34.000 : en:Scene 10
00:20:54.000 : en:Scene 11
00:22:22.000 : en:Scene 12
00:23:46.000 : en:Scene 13
00:24:34.000 : en:Scene 14
00:25:12.000 : en:Scene 15
00:27:05.000 : en:Scene 16
00:27:48.000 : en:Scene 17
00:29:40.000 : en:Scene 18
00:30:37.000 : en:Scene 19
00:31:08.000 : en:Scene 20
00:31:50.000 : en:Scene 21
00:32:47.000 : en:Scene 22
00:33:23.000 : en:Scene 23
00:34:50.000 : en:Scene 24
00:36:58.000 : en:Scene 25
00:37:38.000 : en:Scene 26
00:44:47.000 : en:Scene 27
00:46:22.000 : en:Scene 28
00:48:05.000 : en:Scene 29
00:49:20.000 : en:Scene 30
00:52:23.000 : en:Scene 31
00:53:26.000 : en:Scene 32
00:54:10.000 : en:Scene 33
00:56:11.000 : en:Scene 34
00:57:58.000 : en:Scene 35
00:58:31.000 : en:Scene 36
00:59:35.000 : en:Scene 37
01:01:33.000 : en:Scene 38
01:02:25.000 : en:Scene 39
01:04:00.000 : en:Scene 40
01:05:28.000 : en:Scene 41
01:08:56.000 : en:Scene 42
01:09:34.000 : en:Scene 43
01:11:27.000 : en:Scene 44
01:12:51.000 : en:Scene 45
01:14:18.000 : en:Scene 46
01:17:14.000 : en:Scene 47
01:18:20.000 : en:Scene 48
01:19:13.000 : en:Scene 49
01:20:38.000 : en:Scene 50
01:22:02.000 : en:Scene 51
01:22:34.000 : en:Scene 52
01:24:21.000 : en:Scene 53
01:25:39.000 : en:Scene 54
01:27:10.000 : en:Scene 55
01:30:15.000 : en:Scene 56
01:31:18.000 : en:Scene 57
01:31:51.000 : en:Scene 58
01:32:59.000 : en:Scene 59
01:34:58.000 : en:Scene 60
01:36:32.000 : en:Scene 61
01:38:26.000 : en:Scene 62
01:39:20.000 : en:Scene 63
01:41:46.000 : en:Scene 64

Другие фильмы
У данной публикации пока нет комментариев.
Будь первым, оставь своё мнение в комментариях!
Информация
Посетители, находящиеся в группе Гости, не могут оставлять комментарии к данной публикации.
Самый популярный релиз недели
Донаты
Мы в соц. сетях / RSS

Лучшие релизы месяца
Лучшие SD недели
Лучшие 720p недели
Лучшие 1080p недели
Лучшие 4K недели
Вы недавно смотрели
Реклама
Последние комментарии
...

korelov

23 февраля 2024 14:35

...

Desol

21 февраля 2024 00:28

...

diabloq

20 февраля 2024 14:17

...

slightlymad

17 февраля 2024 21:01

...

takezi

15 февраля 2024 22:10

Реклама