+4

Американские граффити / American Graffiti (1973) UHD BDRemux 2160p от селезень | 4K | HDR | D

Информация о фильме
Название: Американские граффити
Оригинальное название: American Graffiti
Год выхода: 1973
Жанр: драма, комедия
Режиссер: Джордж Лукас
В ролях: Ричард Дрейфусс, Рон Ховард, Пол Ле Мэт, Чарльз Мартин Смит, Синди Уильямс, Кэнди Кларк, МакКензи Филлипс, Харрисон Форд, Вулфман Джек, Бо Хопкинс

О фильме: Одна ночь 1962 года… Калифорнийские подростки Стив Боландер и Курт Хендерсон только что закончили школу и собрались уехать на восточное побережье поступать в колледж.

Стив влюблён в сестру Курта Лори, и молодым трудно расстаться друг с другом. Курт ещё не нашёл свою любовь, но он увидел на улице шикарную блондинку, и теперь пытается её отыскать.

Их приятель, непобедимый автогонщик Джон Милнер, оказывается в эту ночь наедине с несовершеннолетней девчонкой Кэрол, упорно не желающей покидать нового знакомого. Много весёлого и грустного случилось с ребятами.


Страна: США
Студия: Lucasfilm Ltd., The Coppola Company, Universal Pictures
Продолжительность: 01:52:30
Перевод: Дублированный

Качество: BDRemux 2160p
Видео: 3840x2160 at 23.976 fps, MPEG-H HEVC HDR Video, 79200 kbps
Аудио #01: 48 kHz, AC3, 2.0, 192 Kbps | Дублированный | RUS |Американские граффити / American Graffiti (1973) UHD BDRemux 2160p от селезень | 4K | HDR | D
Аудио #02: 48 kHz, DTS-HD MA, 5.1, 3726 Kbps | Оригинал | ENG |
Субтитры: Русские (Forced, full), английские

Американские граффити / American Graffiti (1973) UHD BDRemux 2160p от селезень | 4K | HDR | D

Авторизуйтесь для получения доступа к скачиванию

Нет аккаунта? Регистрация открыта и займёт меньше минуты

Вход Регистрация

General
Unique ID : 39925471678085539026444033754403119951 (0x1E095DBBAB6B5A9B30C788F63783234F)
Complete name : H:\VideoH\American.Graffiti.1973.BDREMUX.2160p.HDR.seleZen.mkv
Format : Matroska
Format version : Version 4
File size : 65.3 GiB
Duration : 1 h 52 min
Overall bit rate mode : Variable
Overall bit rate : 83.0 Mb/s
Frame rate : 23.976 FPS
Movie name : American Graffiti (1973) from seleZen
Encoded date : 2023-12-07 15:38:29 UTC
Writing application : mkvmerge v80.0 ('Roundabout') 64-bit
Writing library : libebml v1.4.4 + libmatroska v1.7.1

Video
ID : 1
Format : HEVC
Format/Info : High Efficiency Video Coding
Format profile : Main [email protected]@High
HDR format : SMPTE ST 2086, HDR10 compatible
Codec ID : V_MPEGH/ISO/HEVC
Duration : 1 h 52 min
Bit rate : 79.2 Mb/s
Width : 3 840 pixels
Height : 2 160 pixels
Display aspect ratio : 16:9
Frame rate mode : Constant
Frame rate : 23.976 (24000/1001) FPS
Color space : YUV
Chroma subsampling : 4:2:0 (Type 2)
Bit depth : 10 bits
Bits/(Pixel*Frame) : 0.398
Stream size : 62.2 GiB (95%)
Writing library : ATEME Titan File 3.9.12 (4.9.12.4)
Language : English
Default : Yes
Forced : No
Color range : Limited
Color primaries : BT.2020
Transfer characteristics : PQ
Matrix coefficients : BT.2020 non-constant
Mastering display color pri : Display P3
Mastering display luminance : min: 0.0050 cd/m2, max: 1000 cd/m2
Maximum Content Light Level : 1000 cd/m2
Maximum Frame-Average Light : 66 cd/m2

Audio #1
ID : 2
Format : AC-3
Format/Info : Audio Coding 3
Commercial name : Dolby Digital
Codec ID : A_AC3
Duration : 1 h 52 min
Bit rate mode : Constant
Bit rate : 192 kb/s
Channel(s) : 2 channels
Channel layout : L R
Sampling rate : 48.0 kHz
Frame rate : 31.250 FPS (1536 SPF)
Compression mode : Lossy
Stream size : 155 MiB (0%)
Title : Dub
Language : Russian
Service kind : Complete Main
Default : Yes
Forced : No

Audio #2
ID : 3
Format : DTS XLL
Format/Info : Digital Theater Systems
Commercial name : DTS-HD Master Audio
Codec ID : A_DTS
Duration : 1 h 52 min
Bit rate mode : Variable
Bit rate : 3 726 kb/s
Channel(s) : 6 channels
Channel layout : C L R Ls Rs LFE
Sampling rate : 48.0 kHz
Frame rate : 93.750 FPS (512 SPF)
Bit depth : 24 bits
Compression mode : Lossless
Stream size : 2.93 GiB (4%)
Title : Original
Language : English
Default : No
Forced : No

Text #1
ID : 4
Format : UTF-8
Codec ID : S_TEXT/UTF8
Codec ID/Info : UTF-8 Plain Text
Duration : 1 h 50 min
Bit rate : 0 b/s
Frame rate : 0.002 FPS
Count of elements : 10
Stream size : 558 Bytes (0%)
Title : Forced
Language : Russian
Default : Yes
Forced : No

Text #2
ID : 5
Format : UTF-8
Codec ID : S_TEXT/UTF8
Codec ID/Info : UTF-8 Plain Text
Duration : 1 h 50 min
Bit rate : 106 b/s
Frame rate : 0.233 FPS
Count of elements : 1541
Stream size : 85.8 KiB (0%)
Title : Full
Language : Russian
Default : No
Forced : No

Text #3
ID : 6
Format : UTF-8
Codec ID : S_TEXT/UTF8
Codec ID/Info : UTF-8 Plain Text
Duration : 1 h 50 min
Bit rate : 71 b/s
Frame rate : 0.274 FPS
Count of elements : 1808
Stream size : 57.9 KiB (0%)
Title : Full
Language : English
Default : No
Forced : No

Menu
00:00:00.000 : en:Main Titles
00:02:00.662 : en:You Can't Stay 17 Forever
00:03:36.550 : en:Mel's Drive-In
00:05:10.435 : en:Dating Other People?
00:07:08.720 : en:The Superfine Machine
00:10:09.818 : en:Cruisin'
00:11:46.372 : en:A Goddess in a T-Bird
00:13:19.090 : en:Judy's Sister
00:16:08.301 : en:Toad on the Road
00:18:08.296 : en:At the Hop
00:19:51.857 : en:Talking in the Toliet
00:21:00.426 : en:Joe College Strikes Out
00:22:25.886 : en:Strollin'
00:24:01.315 : en:Not the Competitive Type
00:26:11.904 : en:Drivin' Is a Serious Business
00:29:53.542 : en:Looking for Milner
00:30:48.722 : en:Just Like Connie Stevens
00:33:02.022 : en:The Last Dance
00:38:14.876 : en:Waiting for a Double Chubby-Chuck
00:40:16.914 : en:Who's That Blonde?
00:42:55.615 : en:Back on the Street
00:44:25.997 : en:Baby-Sitting
00:46:32.623 : en:The Liquor Store
00:50:48.254 : en:The Graveyard
00:52:33.776 : en:Take a Ride With the Pharaohs
00:56:11.368 : en:Listenin' to Wolfman
00:58:17.869 : en:The Special Prize
01:00:06.061 : en:A Perfect Night
01:03:02.821 : en:The Right Boy
01:06:07.005 : en:The End of a Perfect Night
01:09:19.113 : en:The Goat Killer?
01:12:38.521 : en:The Big Challenge
01:15:51.964 : en:A Chance to Be a Pharaoh
01:20:12.057 : en:It's Never Too Late
01:22:56.597 : en:Gotta Find That Blonde
01:24:48.834 : en:Falfa's New Girlfriend
01:25:58.820 : en:Like a Ring, or Something
01:27:27.826 : en:Early in the Morning
01:29:01.503 : en:Sicker Than a Dog
01:30:59.537 : en:Just Like the Lone Ranger
01:32:36.968 : en:Where's Laurie?
01:33:39.489 : en:A Pretty Good Thing
01:35:57.627 : en:The Wolfman
01:40:42.745 : en:Paradise Road
01:42:37.651 : en:The Big Race
01:44:54.121 : en:Number One
01:46:13.117 : en:Good Night, Sweetheart
01:47:39.620 : en:It's Time to Go
01:49:47.289 : en:Epilogue/End Credits

Другие фильмы
У данной публикации пока нет комментариев.
Будь первым, оставь своё мнение в комментариях!
Информация
Посетители, находящиеся в группе Гости, не могут оставлять комментарии к данной публикации.
Самый популярный релиз недели
Донаты
Мы в соц. сетях / RSS

Лучшие релизы месяца
Лучшие SD недели
Лучшие 720p недели
Лучшие 1080p недели
Лучшие 4K недели
Вы недавно смотрели
Реклама
Последние комментарии
...

korelov

23 февраля 2024 14:35

...

Desol

21 февраля 2024 00:28

...

diabloq

20 февраля 2024 14:17

...

slightlymad

17 февраля 2024 21:01

...

takezi

15 февраля 2024 22:10

Реклама