+14

Звук свободы / Sound of Freedom (2023) BDRip 720p от DoMiNo & селезень | D

Информация о фильме
Название: Звук свободы
Оригинальное название: Sound of Freedom
Год выхода: 2023
Жанр: Боевик, триллер, драма, биография, история
Режиссер: Алехандро Гомес Монтеверде
В ролях: Джеймс Кэвизел, Мира Сорвино, Курт Фуллер, Билл Кэмп, Хосе Суньига, Скотт Хэйз, Эдуардо Верастеги, Херардо Тарасена, Гэри Басараба, Мэнни Перес

О фильме:
Сюжет фильма основан на реальной истории Тима Балларда, который оставил карьеру правительственного агента США, чтобы стать активистом и борцом с торговлей людьми. В ходе одной из операций Баллард освобождает мальчика, который рассказывает ему о своей сестре, оставшейся в руках торговцев. Представляя, какая ужасная жизнь уготована девочке, Тим отправляется в джунгли Колумбии, чтобы провести самую опасную спасательную операцию.

Страна: США, Мексика
Студия: Santa Fe Films
Продолжительность: 02:11:01
Перевод: Дублированный | Пифагор
Субтитры: Русские (Forced, Full), Английские

Файл
Формат: Matroska
Качество: BDRip 720p
Видео: 1280x536 at 23.976 fps, [email protected], ~4287 kbps
Аудио 1: AC3, 6 ch, ~384 kbps - | Русский | Звук свободы / Sound of Freedom (2023) BDRip 720p от DoMiNo & селезень | D
Аудио 2: AC3, 6 ch, ~448 kbps - | Английский |
Формат субтитров: softsub (SRT)

Авторизуйтесь для получения доступа к скачиванию

Нет аккаунта? Регистрация открыта и займёт меньше минуты

Вход Регистрация

General
Unique ID : 162384064657028775329289028647513161704 (0x7A2A0883D22B83A21530ECEA22D2FFE8)
Complete name : R:Sound.of.Freedom.2023.DUB.BDRip.720p.x264.seleZen.mkv
Format : Matroska
Format version : Version 4
File size : 4.69 GiB
Duration : 2 h 11 min
Overall bit rate : 5 121 kb/s
Frame rate : 23.976 FPS
Movie name : Sound.of.Freedom.2023.DUB.BDRip.720p.x264.seleZen
Encoded date : 2023-12-08 15:53:36 UTC
Writing application : mkvmerge v81.0 ('Milliontown') 64-bit
Writing library : libebml v1.4.4 + libmatroska v1.7.1
Cover : Yes
Attachments : cover.jpg / small_cover.jpg

Video
ID : 1
Format : AVC
Format/Info : Advanced Video Codec
Format profile : [email protected]
Format settings : CABAC / 12 Ref Frames
Format settings, CABAC : Yes
Format settings, Reference : 12 frames
Codec ID : V_MPEG4/ISO/AVC
Duration : 2 h 11 min
Bit rate : 4 287 kb/s
Width : 1 280 pixels
Height : 536 pixels
Display aspect ratio : 2.40:1
Frame rate mode : Constant
Frame rate : 23.976 (24000/1001) FPS
Color space : YUV
Chroma subsampling : 4:2:0
Bit depth : 8 bits
Scan type : Progressive
Bits/(Pixel*Frame) : 0.261
Stream size : 3.92 GiB (84%)
Title : -=DoMiNo=-
Writing library : x264 core 164 r3156+57M dac90dd t_mod_New [(8 & 10)-DoMiNo- X86_64]
Encoding settings : cabac=1 / ref=12 / deblock=1:-2:-2 / analyse=0x3:0x133 / me=umh / subme=10 / psy=1 / fade_compensate=0.00 / psy_rd=1.03:0.05 / mixed_ref=1 / me_range=32 / chroma_me=1 / trellis=2 / 8x8dct=1 / cqm=0 / deadzone=21,11 / fast_pskip=0 / chroma_qp_offset=-3 / threads=17 / lookahead_threads=4 / sliced_threads=0 / nr=0 / decimate=1 / interlaced=0 / bluray_compat=0 / constrained_intra=0 / fgo=0 / bframes=12 / b_pyramid=2 / b_adapt=2 / b_bias=0 / direct=3 / weightb=1 / open_gop=0 / weightp=2 / keyint=250 / keyint_min=23 / scenecut=40 / intra_refresh=0 / rc_lookahead=60 / rc=crf / mbtree=0 / crf=17.0000 / qcomp=0.60 / qpmin=0:0:0 / qpmax=69:69:69 / qpstep=4 / vbv_maxrate=50000 / vbv_bufsize=62500 / crf_max=0.0 / nal_hrd=none / filler=0 / ip_ratio=1.35 / pb_ratio=1.30 / aq=3:0.80 / aq-sensitivity=10.00 / aq-factor=1.00:1.00:1.00:1.00 / aq2=0 / aq3=0
Language : English
Default : Yes
Forced : No
Color range : Limited
Matrix coefficients : BT.709

Audio #1
ID : 2
Format : AC-3
Format/Info : Audio Coding 3
Commercial name : Dolby Digital
Codec ID : A_AC3
Duration : 2 h 11 min
Bit rate mode : Constant
Bit rate : 384 kb/s
Channel(s) : 6 channels
Channel layout : L R C LFE Ls Rs
Sampling rate : 48.0 kHz
Frame rate : 31.250 FPS (1536 SPF)
Compression mode : Lossy
Stream size : 360 MiB (7%)
Title : Пифагор
Language : Russian
Service kind : Complete Main
Default : Yes
Forced : No

Audio #2
ID : 3
Format : AC-3
Format/Info : Audio Coding 3
Commercial name : Dolby Digital
Codec ID : A_AC3
Duration : 2 h 11 min
Bit rate mode : Constant
Bit rate : 448 kb/s
Channel(s) : 6 channels
Channel layout : L R C LFE Ls Rs
Sampling rate : 48.0 kHz
Frame rate : 31.250 FPS (1536 SPF)
Compression mode : Lossy
Stream size : 420 MiB (9%)
Title : Original
Language : English
Service kind : Complete Main
Default : No
Forced : No

Text #1
ID : 4
Format : UTF-8
Codec ID : S_TEXT/UTF8
Codec ID/Info : UTF-8 Plain Text
Duration : 2 h 0 min
Bit rate : 3 b/s
Frame rate : 0.006 FPS
Count of elements : 42
Stream size : 2.74 KiB (0%)
Title : Forced
Language : Russian
Default : No
Forced : No

Text #2
ID : 5
Format : UTF-8
Codec ID : S_TEXT/UTF8
Codec ID/Info : UTF-8 Plain Text
Duration : 2 h 0 min
Bit rate : 47 b/s
Frame rate : 0.135 FPS
Count of elements : 976
Stream size : 42.2 KiB (0%)
Title : Full
Language : Russian
Default : No
Forced : No

Text #3
ID : 6
Format : UTF-8
Codec ID : S_TEXT/UTF8
Codec ID/Info : UTF-8 Plain Text
Duration : 2 h 0 min
Bit rate : 39 b/s
Frame rate : 0.107 FPS
Count of elements : 768
Stream size : 34.5 KiB (0%)
Title : Full
Language : Russian
Default : No
Forced : No

Text #4
ID : 7
Format : UTF-8
Codec ID : S_TEXT/UTF8
Codec ID/Info : UTF-8 Plain Text
Duration : 1 h 58 min
Bit rate : 41 b/s
Frame rate : 0.172 FPS
Count of elements : 1224
Stream size : 35.8 KiB (0%)
Title : SDH
Language : English
Default : No
Forced : No

Menu
00:00:00.000 : en:Chapter 01
00:08:07.195 : en:Chapter 02
00:12:46.432 : en:Chapter 03
00:18:21.767 : en:Chapter 04
00:28:16.653 : en:Chapter 05
00:39:16.645 : en:Chapter 06
00:49:27.547 : en:Chapter 07
01:00:42.096 : en:Chapter 08
01:06:12.677 : en:Chapter 09
01:13:08.384 : en:Chapter 10
01:20:47.425 : en:Chapter 11
01:30:19.288 : en:Chapter 12
01:36:23.360 : en:Chapter 13
01:41:37.091 : en:Chapter 14
01:53:27.801 : en:Chapter 15
02:00:31.974 : en:Chapter 16
02:11:01.895 : en:Chapter 17

Другие фильмы
У данной публикации пока нет комментариев.
Будь первым, оставь своё мнение в комментариях!
Информация
Посетители, находящиеся в группе Гости, не могут оставлять комментарии к данной публикации.
Самый популярный релиз недели
Донаты
Мы в соц. сетях / RSS

Лучшие релизы месяца
Лучшие SD недели
Лучшие 720p недели
Лучшие 1080p недели
Лучшие 4K недели
Вы недавно смотрели
Реклама
Последние комментарии
...

korelov

23 февраля 2024 14:35

...

Desol

21 февраля 2024 00:28

...

diabloq

20 февраля 2024 14:17

...

slightlymad

17 февраля 2024 21:01

...

takezi

15 февраля 2024 22:10

Реклама