+9

Создатель / The Creator (2023) UHD BDRemux 2160p от селезень | 4K | HDR | D

Информация о фильме
Название: Создатель
Оригинальное название: The Creator
Год выхода: 2023
Жанр: фантастика, боевик, драма
Режиссер: Гарет Эдвардс
В ролях: Джон Дэвид Вашингтон, Мэделин Юна Войлс, Джемма Чан, Эллисон Дженни, Кэн Ватанабэ, Стерджил Симпсон, Амер Чадха-Пател, Марк Менчака, Робби Танн, Ральф Айнесон

О фильме: Повсеместное применение искусственного интеллекта привело к тому, что в Лос-Анджелесе произошёл ядерный взрыв. С тех пор коллективный Запад во главе с США ведёт непримиримую войну на уничтожение ИИ, но блок стран Юго-Восточной Азии - Новая Азия - живёт в гармонии с роботами и сдаваться не собирается. В 2065 году спецназовец Джошуа находился в тылу врага, с целью отыскать главного создателя ИИ, известного под именем Нирмата, и втёрся в доверие настолько, что женился на учёной Майе и с нетерпением ждал рождения ребёнка. Но во время нападения американцев и ракетного удара главной надежды Запада на победу - военной орбитальной станции NOMAD - его жена погибла.
Пять лет спустя Джошуа вынужден вернуться в Новую Азию, чтобы помочь отряду военных найти Нирмату и его лабораторию, где, по данным разведки, разработано новейшее оружие, способное уничтожить NOMAD.


Страна: США
Студия: 20th Century Studios, Regency Television
Продолжительность: 02:13:29
Перевод: Дублированный | MovieDalen

Качество: BDRemux 2160p
Видео: 3840x2160 at 23.976 fps, MPEG-H HEVC HDR Video, 45300 kbps
Аудио #01: 48 kHz, AC3, 5.1, 384 Kbps | Дублированный | MovieDalen | RUS |Создатель / The Creator (2023) UHD BDRemux 2160p от селезень | 4K | HDR | D
Аудио #02: 48 kHz, TrueHD, 7.1, 4560 Kbps | Оригинал | ENG |
Аудио #03: 48 kHz, AC3, 5.1, 640 Kbps | Оригинал | ENG |
Субтитры: Русские (Forced, full), английские

Создатель / The Creator (2023) UHD BDRemux 2160p от селезень | 4K | HDR | D

Авторизуйтесь для получения доступа к скачиванию

Нет аккаунта? Регистрация открыта и займёт меньше минуты

Вход Регистрация

General
Unique ID : 167159156734777820109382707688084861977 (0x7DC1AEBB2A191425FC27042C902FF419)
Complete name : H:\VideoH\The.Creator.2023.BDREMUX.2160p.HDR.seleZen.mkv
Format : Matroska
Format version : Version 4
File size : 47.5 GiB
Duration : 2 h 13 min
Overall bit rate mode : Variable
Overall bit rate : 50.9 Mb/s
Frame rate : 23.976 FPS
Movie name : The Creator (2023) from seleZen
Encoded date : 2023-12-09 08:13:32 UTC
Writing application : mkvmerge v80.0 ('Roundabout') 64-bit
Writing library : libebml v1.4.4 + libmatroska v1.7.1

Video
ID : 1
Format : HEVC
Format/Info : High Efficiency Video Coding
Format profile : Main [email protected]@High
HDR format : SMPTE ST 2086, HDR10 compatible
Codec ID : V_MPEGH/ISO/HEVC
Duration : 2 h 13 min
Bit rate : 45.3 Mb/s
Width : 3 840 pixels
Height : 2 160 pixels
Display aspect ratio : 16:9
Frame rate mode : Constant
Frame rate : 23.976 (24000/1001) FPS
Color space : YUV
Chroma subsampling : 4:2:0 (Type 2)
Bit depth : 10 bits
Bits/(Pixel*Frame) : 0.228
Stream size : 42.2 GiB (89%)
Language : English
Default : Yes
Forced : No
Color range : Limited
Color primaries : BT.2020
Transfer characteristics : PQ
Matrix coefficients : BT.2020 non-constant
Mastering display color pri : Display P3
Mastering display luminance : min: 0.0050 cd/m2, max: 1000 cd/m2

Audio #1
ID : 2
Format : AC-3
Format/Info : Audio Coding 3
Commercial name : Dolby Digital
Codec ID : A_AC3
Duration : 2 h 13 min
Bit rate mode : Constant
Bit rate : 384 kb/s
Channel(s) : 6 channels
Channel layout : L R C LFE Ls Rs
Sampling rate : 48.0 kHz
Frame rate : 31.250 FPS (1536 SPF)
Compression mode : Lossy
Stream size : 367 MiB (1%)
Title : Dub_MovieDalen
Language : Russian
Service kind : Complete Main
Default : Yes
Forced : No

Audio #2
ID : 3
Format : MLP FBA 16-ch
Format/Info : Meridian Lossless Packing FBA with 16-channel presentation
Commercial name : Dolby TrueHD with Dolby Atmos
Codec ID : A_TRUEHD
Duration : 2 h 13 min
Bit rate mode : Variable
Bit rate : 4 560 kb/s
Maximum bit rate : 7 437 kb/s
Channel(s) : 8 channels
Channel layout : L R C LFE Ls Rs Lb Rb
Sampling rate : 48.0 kHz
Frame rate : 1 200.000 FPS (40 SPF)
Bit depth : 24 bits
Compression mode : Lossless
Stream size : 4.25 GiB (9%)
Title : Original
Language : English
Default : No
Forced : No
Number of dynamic objects : 13
Bed channel count : 1 channel
Bed channel configuration : LFE

Audio #3
ID : 4
Format : AC-3
Format/Info : Audio Coding 3
Commercial name : Dolby Digital
Codec ID : A_AC3
Duration : 2 h 13 min
Bit rate mode : Constant
Bit rate : 640 kb/s
Channel(s) : 6 channels
Channel layout : L R C LFE Ls Rs
Sampling rate : 48.0 kHz
Frame rate : 31.250 FPS (1536 SPF)
Compression mode : Lossy
Stream size : 611 MiB (1%)
Language : English
Service kind : Complete Main
Default : No
Forced : No

Text #1
ID : 5
Format : UTF-8
Codec ID : S_TEXT/UTF8
Codec ID/Info : UTF-8 Plain Text
Duration : 1 h 58 min
Bit rate : 3 b/s
Frame rate : 0.011 FPS
Count of elements : 79
Stream size : 2.98 KiB (0%)
Title : Forced
Language : Russian
Default : Yes
Forced : No

Text #2
ID : 6
Format : UTF-8
Codec ID : S_TEXT/UTF8
Codec ID/Info : UTF-8 Plain Text
Duration : 2 h 2 min
Bit rate : 63 b/s
Frame rate : 0.193 FPS
Count of elements : 1416
Stream size : 57.3 KiB (0%)
Title : Full
Language : Russian
Default : No
Forced : No

Text #3
ID : 7
Format : UTF-8
Codec ID : S_TEXT/UTF8
Codec ID/Info : UTF-8 Plain Text
Duration : 1 h 12 min
Bit rate : 1 b/s
Frame rate : 0.011 FPS
Count of elements : 46
Stream size : 933 Bytes (0%)
Title : Forced
Language : English
Default : No
Forced : No

Text #4
ID : 8
Format : UTF-8
Codec ID : S_TEXT/UTF8
Codec ID/Info : UTF-8 Plain Text
Duration : 2 h 2 min
Bit rate : 42 b/s
Frame rate : 0.187 FPS
Count of elements : 1373
Stream size : 37.6 KiB (0%)
Title : Full
Language : English
Default : No
Forced : No

Text #5
ID : 9
Format : UTF-8
Codec ID : S_TEXT/UTF8
Codec ID/Info : UTF-8 Plain Text
Duration : 2 h 12 min
Bit rate : 62 b/s
Frame rate : 0.276 FPS
Count of elements : 2184
Stream size : 60.8 KiB (0%)
Title : SDH
Language : English
Default : No
Forced : No

Menu
00:00:00.000 : en:Chapter 01
00:03:36.090 : en:Chapter 02
00:09:58.848 : en:Chapter 03
00:14:56.186 : en:Chapter 04
00:18:42.496 : en:Chapter 05
00:24:19.499 : en:Chapter 06
00:30:29.452 : en:Chapter 07
00:33:50.945 : en:Chapter 08
00:37:40.716 : en:Chapter 09
00:42:28.587 : en:Chapter 10
00:46:21.570 : en:Chapter 11
00:50:16.013 : en:Chapter 12
00:54:24.427 : en:Chapter 13
00:59:12.715 : en:Chapter 14
01:04:16.978 : en:Chapter 15
01:09:51.729 : en:Chapter 16
01:14:58.494 : en:Chapter 17
01:20:15.852 : en:Chapter 18
01:28:39.772 : en:Chapter 19
01:32:38.469 : en:Chapter 20
01:37:53.325 : en:Chapter 21
01:41:37.674 : en:Chapter 22
01:46:40.894 : en:Chapter 23
01:50:07.017 : en:Chapter 24
01:53:16.998 : en:Chapter 25
02:00:55.623 : en:Chapter 26
02:03:31.153 : en:Chapter 27

Другие фильмы
Комментарии:

...
alexei5881 10 декабря 2023 14:20
0

НАКОНЕЦ то СПАСИБО ! фильм хороший ?

Информация
Посетители, находящиеся в группе Гости, не могут оставлять комментарии к данной публикации.
Самый популярный релиз недели
Донаты
Мы в соц. сетях / RSS

Лучшие релизы месяца
Лучшие SD недели
Лучшие 720p недели
Лучшие 1080p недели
Лучшие 4K недели
Вы недавно смотрели
Реклама
Последние комментарии
...

korelov

23 февраля 2024 14:35

...

Desol

21 февраля 2024 00:28

...

diabloq

20 февраля 2024 14:17

...

slightlymad

17 февраля 2024 21:01

...

takezi

15 февраля 2024 22:10

Реклама