+16

Изгоняющий дьявола: Верующий / The Exorcist: Believer (2023) BDRip 720p от DoMiNo & селезень | D, P

Информация о фильме
Название: Изгоняющий дьявола: Верующий
Оригинальное название: The Exorcist: Believer
Год выхода: 2023
Жанр: Ужасы
Режиссер: Дэвид Гордон Грин
В ролях: Лесли Одом мл., Лидия Джюэтт, Оливия О’Нилл, Энн Дауд, Норберт Лео Бац, Дженнифер Неттлз, Рафаэль Сбардж, Оквуи Окпоквасили, Дэнни Маккарти, Эллен Бёрстин

Описание:
Две 13-летние подружки после школы пошли в лес, чтобы вызвать дух погибшей мамы одной из них, и пропали. Их семьи ставят на уши полицию и расклеивают объявления, когда вдруг через три дня потеряшки внезапно обнаруживаются в фермерском сарае в 30 км от дома. Родители вне себя от радости, но с девочками что-то не так — обе начинают вести себя очень агрессивно.

Страна: США
Студия: Blumhouse Productions, Morgan Creek Productions, Rough House Pictures, Universal Pictures
Продолжительность: 01:51:07
Перевод 1: Дублированный (профессиональный) | Bravo Records Georgia / Movie Dubbing [Грузия] [лицензия]
Роли дублировали: Григорий Лайков, Ярослава Николаева, Анна Андреева, Маргарита Корш, Андрей Бибиков, Катя Хейфец, Георгий Вардиашвили, Влада Анисимова, Игорь Попов, Алёна Ивченко, Елизавета Эбаноидзе, Георгий Бегоян, Нина Сараджишвили, Бека Медзмариашвили, Изабелла Богданова, Диана Нерсесова
Перевод 2: Дублированный (неофициальный) | TVShows
Перевод 3: Профессиональный (многоголосый закадровый) | TVShows
Субтитры: Русские (2x Forced, 3x Full), Английские (Full, SDH)

Файл
Формат: Matroska
Качество: BDRip 720p [исх.The.Exorcist.Believer.2023.COMPLETE.BLURAY-UNTOUCHED]
Видео: 1280x692 at 23.976 fps, [email protected], ~4929 kbps
Аудио 1: AC3, 6 ch, ~384 kbps - | Русский | Изгоняющий дьявола: Верующий / The Exorcist: Believer (2023) BDRip 720p от DoMiNo & селезень | D, P | DUB | Bravo Records Georgia
Аудио 2: AC3, 6 ch, ~448 kbps - | Русский | | DUB | TVShows
Аудио 3: AC3, 6 ch, ~384 kbps - | Русский | | MVO | TVShows
Аудио 4: AC3, 6 ch, ~448 kbps - | Английский | | Original
Формат субтитров: softsub (SRT)

Авторизуйтесь для получения доступа к скачиванию

Нет аккаунта? Регистрация открыта и займёт меньше минуты

Вход Регистрация

x264 [info]: frame I: 1119 Avg QP: 12.50 size: 96753
x264 [info]: frame P: 31002 Avg QP: 13.89 size: 51881
x264 [info]: frame B: 127744 Avg QP: 16.21 size: 18721

General
Unique ID: 84899457375928986697172371633365888526 (0×3FDF0A6CC6089A50C89F717E43A4AE0E)
Complete name: R: The.Exorcist.Believer.2023.DUB.MVO.BDRip.720p.x264.seleZen.mkv
Format: Matroska
Format version: Version 4
File size: 5.12 GiB
Duration: 1 h 51 min
Overall bit rate: 6 585 kb/s
Frame rate: 23.976 FPS
Movie name: The.Exorcist.Believer.2023.DUB.MVO.BDRip.720p.x264.seleZen
Encoded date: 22.02.2024 16:13:10 UTC
Writing application: mkvmerge v82.0 ('I’m The President') 64-bit
Writing library: libebml v1.4.5 + libmatroska v1.7.1
Cover: Yes
Attachments: cover.jpg / small_cover.jpg

Video
ID: 1
Format: AVC
Format/Info: Advanced Video Codec
Format profile: [email protected]
Format settings: CABAC / 9 Ref Frames
Format settings, CABAC: Yes
Format settings, Reference: 9 frames
Codec ID: V_MPEG4/ISO/AVC
Duration: 1 h 51 min
Bit rate: 4 929 kb/s
Width: 1 280 pixels
Height: 692 pixels
Display aspect ratio: 1.85:1
Frame rate mode: Constant
Frame rate: 23.976 (24000/1001) FPS
Color space: YUV
Chroma subsampling: 4:2:0
Bit depth: 8 bits
Scan type: Progressive
Bits/(Pixel*Frame): 0.232
Stream size: 3.83 GiB (75%)
Title: -=DoMiNo=-
Writing library: x264 core 164 r3172 -DoMiNo
Encoding settings: cabac=1 / ref=9 / deblock=1:-2:-2 / analyse=0×3:0×133 / me=umh / subme=10 / psy=1 / psy_rd=1.05:0.05 / mixed_ref=1 / me_range=32 / chroma_me=1 / trellis=2 / 8×8dct=1 / cqm=0 / deadzone=21,11 / fast_pskip=0 / chroma_qp_offset=-3 / threads=22 / lookahead_threads=5 / sliced_threads=0 / nr=0 / decimate=1 / interlaced=0 / bluray_compat=0 / constrained_intra=0 / bframes=10 / b_pyramid=2 / b_adapt=2 / b_bias=0 / direct=3 / weightb=1 / open_gop=0 / weightp=2 / keyint=250 / keyint_min=23 / scenecut=40 / intra_refresh=0 / rc_lookahead=60 / rc=crf / mbtree=0 / crf=18.0 / qcomp=0.60 / qpmin=0 / qpmax=69 / qpstep=4 / vbv_maxrate=50000 / vbv_bufsize=62500 / crf_max=0.0 / nal_hrd=none / filler=0 / ip_ratio=1.40 / pb_ratio=1.30 / aq=3:0.90
Language: English
Default: Yes
Forced: No

Audio #1
ID: 2
Format: AC-3
Format/Info: Audio Coding 3
Commercial name: Dolby Digital
Codec ID: A_AC3
Duration: 1 h 51 min
Bit rate mode: Constant
Bit rate: 384 kb/s
Channel (s): 6 channels
Channel layout: L R C LFE Ls Rs
Sampling rate: 48.0 kHz
Frame rate: 31.250 FPS (1536 SPF)
Compression mode: Lossy
Stream size: 306 MiB (6%)
Title: DUB_[Bravo Records Georgia / Movie Dubbing]
Language: Russian
Service kind: Complete Main
Default: Yes
Forced: No

Audio #2
ID: 3
Format: AC-3
Format/Info: Audio Coding 3
Commercial name: Dolby Digital
Codec ID: A_AC3
Duration: 1 h 51 min
Bit rate mode: Constant
Bit rate: 448 kb/s
Channel (s): 6 channels
Channel layout: L R C LFE Ls Rs
Sampling rate: 48.0 kHz
Frame rate: 31.250 FPS (1536 SPF)
Compression mode: Lossy
Stream size: 356 MiB (7%)
Title: DUB_[TVShows]
Language: Russian
Service kind: Complete Main
Default: No
Forced: No

Audio #3
ID: 4
Format: AC-3
Format/Info: Audio Coding 3
Commercial name: Dolby Digital
Codec ID: A_AC3
Duration: 1 h 51 min
Bit rate mode: Constant
Bit rate: 384 kb/s
Channel (s): 6 channels
Channel layout: L R C LFE Ls Rs
Sampling rate: 48.0 kHz
Frame rate: 31.250 FPS (1536 SPF)
Compression mode: Lossy
Stream size: 305 MiB (6%)
Title: MVO_TVShows
Language: Russian
Service kind: Complete Main
Default: No
Forced: No

Audio #4
ID: 5
Format: AC-3
Format/Info: Audio Coding 3
Commercial name: Dolby Digital
Codec ID: A_AC3
Duration: 1 h 51 min
Bit rate mode: Constant
Bit rate: 448 kb/s
Channel (s): 6 channels
Channel layout: L R C LFE Ls Rs
Sampling rate: 48.0 kHz
Frame rate: 31.250 FPS (1536 SPF)
Compression mode: Lossy
Stream size: 356 MiB (7%)
Title: Original
Language: English
Service kind: Complete Main
Default: No
Forced: No

Text #1
ID: 6
Format: UTF-8
Codec ID: S_TEXT/UTF8
Codec ID/Info: UTF-8 Plain Text
Duration: 1 h 41 min
Bit rate: 1 b/s
Frame rate: 0.004 FPS
Count of elements: 27
Stream size: 877 Bytes (0%)
Title: Forced
Language: Russian
Default: No
Forced: No

Text #2
ID: 7
Format: UTF-8
Codec ID: S_TEXT/UTF8
Codec ID/Info: UTF-8 Plain Text
Duration: 1 h 41 min
Bit rate: 1 b/s
Frame rate: 0.005 FPS
Count of elements: 30
Stream size: 926 Bytes (0%)
Title: Forced
Language: Russian
Default: No
Forced: No

Text #3
ID: 8
Format: UTF-8
Codec ID: S_TEXT/UTF8
Codec ID/Info: UTF-8 Plain Text
Duration: 1 h 49 min
Bit rate: 80 b/s
Frame rate: 0.210 FPS
Count of elements: 1380
Stream size: 64.8 KiB (0%)
Title: Full
Language: Russian
Default: No
Forced: No

Text #4
ID: 9
Format: UTF-8
Codec ID: S_TEXT/UTF8
Codec ID/Info: UTF-8 Plain Text
Duration: 1 h 49 min
Bit rate: 80 b/s
Frame rate: 0.207 FPS
Count of elements: 1365
Stream size: 64.4 KiB (0%)
Title: Full (iTunes)
Language: Russian
Default: No
Forced: No

Text #5
ID: 10
Format: UTF-8
Codec ID: S_TEXT/UTF8
Codec ID/Info: UTF-8 Plain Text
Duration: 1 h 41 min
Bit rate: 101 b/s
Frame rate: 0.239 FPS
Count of elements: 1461
Stream size: 75.5 KiB (0%)
Title: Full
Language: Russian
Default: No
Forced: No

Text #6
ID: 11
Format: UTF-8
Codec ID: S_TEXT/UTF8
Codec ID/Info: UTF-8 Plain Text
Duration: 1 h 41 min
Bit rate: 60 b/s
Frame rate: 0.219 FPS
Count of elements: 1329
Stream size: 45.2 KiB (0%)
Title: Full
Language: English
Default: No
Forced: No

Text #7
ID: 12
Format: UTF-8
Codec ID: S_TEXT/UTF8
Codec ID/Info: UTF-8 Plain Text
Duration: 1 h 41 min
Bit rate: 72 b/s
Frame rate: 0.263 FPS
Count of elements: 1606
Stream size: 53.9 KiB (0%)
Title: SDH
Language: English
Default: No
Forced: No

Menu
00:00:00.000: en: Chapter 1
00:07:25.945: en: Chapter 2
00:13:37.525: en: Chapter 3
00:21:01.885: en: Chapter 4
00:28:31.876: en: Chapter 5
00:34:27.732: en: Chapter 6
00:39:32.244: en: Chapter 7
00:44:51.313: en: Chapter 8
00:48:41.627: en: Chapter 9
00:52:13.088: en: Chapter 10
00:57:32.073: en: Chapter 11
01:00:34.005: en: Chapter 12
01:06:50.339: en: Chapter 13
01:10:09.872: en: Chapter 14
01:17:28.560: en: Chapter 15
01:23:01.101: en: Chapter 16
01:27:14.896: en: Chapter 17
01:34:22.031: en: Chapter 18
01:40:10.421: en: Chapter 19
01:42:53.500: en: Chapter 20
01:51:07.452: en: Chapter 21

Другие фильмы
У данной публикации пока нет комментариев.
Будь первым, оставь своё мнение в комментариях!
Информация
Посетители, находящиеся в группе Гости, не могут оставлять комментарии к данной публикации.
Самый популярный релиз недели
Донаты
Мы в соц. сетях / RSS

Лучшие релизы месяца
Лучшие SD недели
Лучшие 720p недели
Лучшие 1080p недели
Лучшие 4K недели
Вы недавно смотрели
Реклама
Последние комментарии
...

Tony1984

Вчера, 14:36

...

bolonka123

19 апреля 2024 10:05

...

Sergunka

17 апреля 2024 23:31

...

-=DoMiNo=-

17 апреля 2024 13:52

...

bolonka123

17 апреля 2024 11:43

Реклама