+29

Джек Ричер / Reacher [S02] (2023) WEB-DLRip-AVC от DoMiNo & селезень | P

Информация о сериале
Название: Джек Ричер
Оригинальное название: Reacher
Год выхода: 2023
Жанр: Боевик, триллер, драма, криминал
Режиссер: Сэм Хилл, Омар Мадха, Кэрол Бенкер
В ролях: Алан Ричсон, Мария Стэн, Малкольм Гудвин, Уилла Фицджералд, Серинда Свон, Шон Сайпос, Фердинанд Кингсли, Роберт Патрик, Доменик Ломбардоцци, Хью Томпсон и другие.

О сериале:
Джек Ричер получает сигнал о помощи от Фрэнсис Нигли, его бывшей подчиненной из отряда спецрасследований. Она сообщает, что один из девяти членов отряда найден мертвым в пустыне неподалеку от Лос-Анджелеса. Судя по всему, его выбросили из самолета. С остальными сослуживцами из отряда потеряна всякая связь. Возможно, они все тоже мертвы. Кому и по какой причине могла понадобиться смерть этих людей? Ричер начинает расследование, осознавая, что его жизни тоже угрожает смертельная опасность…

Страна: США
Студия: Amazon Studios, Blackjack Films Inc., Paramount Television, Skydance Television
Продолжительность: ~00:45:00 серия
Перевод: Профессиональный (многоголосый закадровый) | HDRezka Studio
Субтитры: Русские (Forced, Full), английские (Full, SDH)

Файл
Формат: Matroska
Качество: WEB-DLRip-AVC
Видео: 1024×512 at 23.976 fps, [email protected], ~1523 kbps
Аудио: AAC, 2 ch, ~96 kbps — | Русский | Джек Ричер / Reacher [S02] (2023) WEB-DLRip-AVC от DoMiNo & селезень | P
Формат субтитров: softsub (SRT)

Авторизуйтесь для получения доступа к скачиванию

Нет аккаунта? Регистрация открыта и займёт меньше минуты

Вход Регистрация

x264 [info]: frame I: 640 Avg QP: 13.50 size: 54957
x264 [info]: frame P: 15389 Avg QP: 16.65 size: 19609
x264 [info]: frame B: 55563 Avg QP: 18.14 size: 4733

General
Unique ID: 291320358994104017052196023141248584795 (0xDB2A42A1AFB6E2D082838EEFA6D0CC5B)
Complete name: E: Reacher.[S02].2023.WEB-DLRip.x264.seleZenReacher.S02E01.WEB-DLRip.x264.seleZen.mkv
Format: Matroska
Format version: Version 4
File size: 645 MiB
Duration: 55 min 41 s
Overall bit rate: 1 620 kb/s
Frame rate: 23.976 FPS
Movie name: Reacher.S02E01.WEB-DLRip.x264.seleZen
Encoded date: 17.12.2023 13:39:14 UTC
Writing application: mkvmerge v81.0 ('Milliontown') 64-bit
Writing library: libebml v1.4.4 + libmatroska v1.7.1
Cover: Yes
Attachments: cover.jpg / small_cover.jpg

Video
ID: 1
Format: AVC
Format/Info: Advanced Video Codec
Format profile: [email protected]
Format settings: CABAC / 10 Ref Frames
Format settings, CABAC: Yes
Format settings, Reference: 10 frames
Codec ID: V_MPEG4/ISO/AVC
Duration: 55 min 41 s
Bit rate: 1 523 kb/s
Width: 1 024 pixels
Height: 512 pixels
Display aspect ratio: 2.000
Frame rate mode: Constant
Frame rate: 23.976 (24000/1001) FPS
Color space: YUV
Chroma subsampling: 4:2:0
Bit depth: 8 bits
Scan type: Progressive
Bits/(Pixel*Frame): 0.121
Stream size: 607 MiB (94%)
Title: -=DoMiNo=-
Writing library: x264 core 164 r3172 -DoMiNo
Encoding settings: cabac=1 / ref=10 / deblock=1:-1:-1 / analyse=0×3:0×133 / me=umh / subme=10 / psy=1 / psy_rd=1.01:0.05 / mixed_ref=1 / me_range=32 / chroma_me=1 / trellis=2 / 8×8dct=1 / cqm=0 / deadzone=21,11 / fast_pskip=0 / chroma_qp_offset=-3 / threads=16 / lookahead_threads=4 / sliced_threads=0 / nr=0 / decimate=1 / interlaced=0 / bluray_compat=0 / constrained_intra=0 / bframes=12 / b_pyramid=2 / b_adapt=2 / b_bias=0 / direct=3 / weightb=1 / open_gop=0 / weightp=2 / keyint=250 / keyint_min=23 / scenecut=40 / intra_refresh=0 / rc_lookahead=60 / rc=crf / mbtree=0 / crf=18.0 / qcomp=0.60 / qpmin=0 / qpmax=69 / qpstep=4 / vbv_maxrate=50000 / vbv_bufsize=62500 / crf_max=0.0 / nal_hrd=none / filler=0 / ip_ratio=1.35 / pb_ratio=1.30 / aq=3:0.80
Language: English
Default: Yes
Forced: No

Audio
ID: 2
Format: AAC LC SBR
Format/Info: Advanced Audio Codec Low Complexity with Spectral Band Replication
Commercial name: HE-AAC
Format settings: Explicit
Codec ID: A_AAC-2
Duration: 55 min 41 s
Bit rate: 96.0 kb/s
Channel (s): 2 channels
Channel layout: L R
Sampling rate: 48.0 kHz
Frame rate: 23.438 FPS (2048 SPF)
Compression mode: Lossy
Stream size: 37.7 MiB (6%)
Title: HDRezka
Language: Russian
Default: Yes
Forced: No

Text #1
ID: 3
Format: UTF-8
Codec ID: S_TEXT/UTF8
Codec ID/Info: UTF-8 Plain Text
Duration: 45 min 16 s
Bit rate: 3 b/s
Frame rate: 0.010 FPS
Count of elements: 26
Stream size: 1.32 KiB (0%)
Title: Forced
Language: Russian
Default: No
Forced: No

Text #2
ID: 4
Format: UTF-8
Codec ID: S_TEXT/UTF8
Codec ID/Info: UTF-8 Plain Text
Duration: 52 min 25 s
Bit rate: 112 b/s
Frame rate: 0.238 FPS
Count of elements: 749
Stream size: 43.2 KiB (0%)
Title: Full
Language: Russian (RU)
Default: No
Forced: No

Text #3
ID: 5
Format: UTF-8
Codec ID: S_TEXT/UTF8
Codec ID/Info: UTF-8 Plain Text
Duration: 51 min 56 s
Bit rate: 78 b/s
Frame rate: 0.300 FPS
Count of elements: 935
Stream size: 30.0 KiB (0%)
Title: English
Language: English (US)
Default: No
Forced: No

Text #4
ID: 6
Format: UTF-8
Codec ID: S_TEXT/UTF8
Codec ID/Info: UTF-8 Plain Text
Duration: 52 min 24 s
Bit rate: 83 b/s
Frame rate: 0.321 FPS
Count of elements: 1009
Stream size: 32.0 KiB (0%)
Title: English [SDH]
Language: English (US)
Default: No
Forced: No

Menu
00:00:00.000: Studio Logo
00:00:06.000: Scene 2
00:01:09.000: Scene 3
00:02:20.000: Title Sequence
00:02:32.000: Scene 5
00:03:38.000: Scene 6
00:04:44.000: Scene 7
00:05:36.000: Scene 8
00:06:12.000: Scene 9
00:06:43.000: Scene 10
00:08:05.000: Scene 11
00:08:40.000: Scene 12
00:09:22.000: Scene 13
00:10:24.000: Scene 14
00:16:03.000: Scene 15
00:16:52.000: Scene 16
00:17:38.000: Scene 17
00:18:47.000: Scene 18
00:20:51.000: Scene 19
00:21:31.000: Scene 20
00:22:27.000: Scene 21
00:22:45.000: Scene 22
00:23:06.000: Scene 23
00:23:21.000: Scene 24
00:28:54.000: Scene 25
00:29:15.000: Scene 26
00:29:52.000: Scene 27
00:30:44.000: Scene 28
00:31:15.000: Scene 29
00:31:51.000: Scene 30
00:33:11.000: Scene 31
00:34:03.000: Scene 32
00:34:36.000: Scene 33
00:35:03.000: Scene 34
00:35:50.000: Scene 35
00:36:45.000: Scene 36
00:38:10.000: Scene 37
00:39:08.000: Scene 38
00:40:24.000: Scene 39
00:41:04.000: Scene 40
00:41:42.000: Scene 41
00:42:23.000: Scene 42
00:43:47.000: Scene 43
00:47:03.000: Scene 44
00:47:33.000: Scene 45
00:49:15.000: Scene 46
00:50:43.000: End Credits

Другие фильмы
У данной публикации пока нет комментариев.
Будь первым, оставь своё мнение в комментариях!
Информация
Посетители, находящиеся в группе Гости, не могут оставлять комментарии к данной публикации.
Самый популярный релиз недели
Донаты
Мы в соц. сетях / RSS

Лучшие релизы месяца
Лучшие SD недели
Лучшие 720p недели
Лучшие 1080p недели
Лучшие 4K недели
Вы недавно смотрели
Реклама
Последние комментарии
...

korelov

23 февраля 2024 14:35

...

Desol

21 февраля 2024 00:28

...

diabloq

20 февраля 2024 14:17

...

slightlymad

17 февраля 2024 21:01

...

takezi

15 февраля 2024 22:10

Реклама