+25

Месье Спейд / Monsieur Spade [01x01-06 из 06] (2024) WEB-DLRip-AVC от DoMiNo & селезень | P

Информация о сериале
Название: Месье Спейд
Оригинальное название: Monsieur Spade
Год выхода: 2024
Жанр: Детектив, триллер, криминал, драма
Режиссер: Скотт Фрэнк
В ролях: Клайв Оуэн, Ребекка Рут, Кара Боссом, Оскар Лесаж, Инес Мелаб, Клотильд Молле, Каролин Сиоль

О сериале:
Франция, 1963 год. В монастыре городка Бозуль кто-то убивает шестерых монахинь. Детектив Сэм Спейд, сменивший привычное ему обращение «мистер» на «месье», берется за это дело. Пока горожане скорбят о погибших, всплывают всё новые и новые секреты, появляются зацепки и вереница подозреваемых. А Сэм узнает, что убийства каким-то образом связаны с ребенком, который, как считают монахини, обладает невероятными способностями.

Страна: США
Студия: Black Bear
Продолжительность: ~00:45:00 серия
Перевод: Профессиональный (многоголосый, закадровый) | Novamedia
Субтитры: Русские (Forced, Full), английские (Full, SDH)

Файл
Формат: Matroska
Качество: WEB-DLRip-AVC
Видео: 1024x554 at 23.976 fps, [email protected], ~1822 kbps
Аудио: AC3, 6 ch, ~384 kbps - | Русский | Месье Спейд / Monsieur Spade [01x01-06 из 06] (2024) WEB-DLRip-AVC от DoMiNo & селезень | P
Формат субтитров: softsub (SRT)

Авторизуйтесь для получения доступа к скачиванию

Нет аккаунта? Регистрация открыта и займёт меньше минуты

Вход Регистрация

General
Unique ID: 323234016949165395603174171300720500308 (0xF32C9B7357025C958D937F42A3EF5E54)
Complete name: E: vrmMonsieur.Spade.[S01]. (2024).WEB-DLRip.x264.seleZenMonsieur.Spade.S01E01.WEB-DLRip.x264.seleZen.mkv
Format: Matroska
Format version: Version 4
File size: 1.02 GiB
Duration: 1 h 6 min
Overall bit rate: 2 204 kb/s
Frame rate: 23.976 FPS
Movie name: Monsieur.Spade.S01E01.WEB-DLRip.x264.seleZen
Encoded date: 16.01.2024 11:09:11 UTC
Writing application: mkvmerge v82.0 ('I’m The President') 64-bit
Writing library: libebml v1.4.5 + libmatroska v1.7.1
Cover: Yes
Attachments: cover.jpg / small_cover.jpg

Video
ID: 1
Format: AVC
Format/Info: Advanced Video Codec
Format profile: [email protected]
Format settings: CABAC / 10 Ref Frames
Format settings, CABAC: Yes
Format settings, Reference: 10 frames
Codec ID: V_MPEG4/ISO/AVC
Duration: 1 h 6 min
Bit rate: 1 822 kb/s
Width: 1 024 pixels
Height: 554 pixels
Display aspect ratio: 1.85:1
Frame rate mode: Constant
Frame rate: 23.976 (24000/1001) FPS
Color space: YUV
Chroma subsampling: 4:2:0
Bit depth: 8 bits
Scan type: Progressive
Bits/(Pixel*Frame): 0.134
Stream size: 861 MiB (83%)
Title: -=DoMiNo=-
Writing library: x264 core 164 r3173 -DoMiNo
Encoding settings: cabac=1 / ref=10 / deblock=1:-1:-1 / analyse=0×3:0×133 / me=umh / subme=10 / psy=1 / psy_rd=1.00:0.00 / mixed_ref=1 / me_range=32 / chroma_me=1 / trellis=2 / 8×8dct=1 / cqm=0 / deadzone=21,11 / fast_pskip=0 / chroma_qp_offset=-2 / threads=18 / lookahead_threads=4 / sliced_threads=0 / nr=0 / decimate=1 / interlaced=0 / bluray_compat=0 / constrained_intra=0 / bframes=10 / b_pyramid=2 / b_adapt=2 / b_bias=0 / direct=1 / weightb=1 / open_gop=0 / weightp=2 / keyint=250 / keyint_min=23 / scenecut=40 / intra_refresh=0 / rc_lookahead=60 / rc=crf / mbtree=0 / crf=19.3 / qcomp=0.60 / qpmin=0 / qpmax=69 / qpstep=4 / vbv_maxrate=50000 / vbv_bufsize=62500 / crf_max=0.0 / nal_hrd=none / filler=0 / ip_ratio=1.40 / pb_ratio=1.20 / aq=3:0.90
Language: English
Default: Yes
Forced: No
Color range: Limited
Color primaries: BT.709
Transfer characteristics: BT.709
Matrix coefficients: BT.709

Audio
ID: 2
Format: AC-3
Format/Info: Audio Coding 3
Commercial name: Dolby Digital
Codec ID: A_AC3
Duration: 1 h 6 min
Bit rate mode: Constant
Bit rate: 384 kb/s
Channel (s): 6 channels
Channel layout: L R C LFE Ls Rs
Sampling rate: 48.0 kHz
Frame rate: 31.250 FPS (1536 SPF)
Compression mode: Lossy
Stream size: 182 MiB (17%)
Title: Novamedia
Language: Russian
Service kind: Complete Main
Default: Yes
Forced: No

Text #1
ID: 3
Format: UTF-8
Codec ID: S_TEXT/UTF8
Codec ID/Info: UTF-8 Plain Text
Duration: 1 h 5 min
Bit rate: 5 b/s
Frame rate: 0.012 FPS
Count of elements: 45
Stream size: 2.48 KiB (0%)
Title: Russian Forced
Language: Russian
Default: No
Forced: No

Text #2
ID: 4
Format: UTF-8
Codec ID: S_TEXT/UTF8
Codec ID/Info: UTF-8 Plain Text
Duration: 1 h 1 min
Bit rate: 91 b/s
Frame rate: 0.197 FPS
Count of elements: 725
Stream size: 40.9 KiB (0%)
Title: Russian Full [Amediateka]
Language: Russian
Default: No
Forced: No

Text #3
ID: 5
Format: UTF-8
Codec ID: S_TEXT/UTF8
Codec ID/Info: UTF-8 Plain Text
Duration: 1 h 2 min
Bit rate: 49 b/s
Frame rate: 0.198 FPS
Count of elements: 745
Stream size: 22.8 KiB (0%)
Title: English
Language: English (US)
Default: No
Forced: No

Text #4
ID: 6
Format: UTF-8
Codec ID: S_TEXT/UTF8
Codec ID/Info: UTF-8 Plain Text
Duration: 1 h 6 min
Bit rate: 53 b/s
Frame rate: 0.234 FPS
Count of elements: 928
Stream size: 25.9 KiB (0%)
Title: English [SDH]
Language: English (US)
Default: No
Forced: No

Другие фильмы
У данной публикации пока нет комментариев.
Будь первым, оставь своё мнение в комментариях!
Информация
Посетители, находящиеся в группе Гости, не могут оставлять комментарии к данной публикации.
Самый популярный релиз недели
Донаты
Мы в соц. сетях / RSS

Лучшие релизы месяца
Лучшие SD недели
Лучшие 720p недели
Лучшие 1080p недели
Лучшие 4K недели
Вы недавно смотрели
Реклама
Последние комментарии
...

Bonzo

14 июня 2024 14:52

...

rmzshka

13 июня 2024 17:48

...

rmzshka

13 июня 2024 12:24

...

LisNick

13 июня 2024 08:45

...

SkySpirit

8 июня 2024 19:54

Реклама