+21

Пчеловод / The Beekeeper (2024) WEB-DLRip 720p от DoMiNo & селезень | P, P2

Информация о фильме
Название: Пчеловод
Оригинальное название: The Beekeeper
Год выпуска: 2024
Жанр: Боевик, триллер
Режиссер: Дэвид Эйр
В ролях: Джейсон Стэйтем, Эмми Рэйвер-Лэмпман, Бобби Надери, Джош Хатчерсон, Джереми Айронс, Дэвид Уиттс, Михаэль Эпп, Тейлор Джеймс, Филисия Рашад, Джемма Редгрейв

О фильме:
Адам Клэй живет в тихом пригороде, занимается разведением пчел и не распространяется о своей прошлой жизни. Пожилая соседка рада, что в их край приехал заинтересованный человек, улучшающий природу и экологию. Пасечник часто общается с милой миссис Паркер, которая однажды становится жертвой финансовых мошенников. Аферисты похищают деньги со всех счетов женщины, и после тяжелого удара пенсионерка сводит счеты с жизнью. Адам решает за нее отомстить.

Выпущено: Великобритания, США, Cedar Park Entertainment, Miramax Films
Продолжительность: 01:45:14
Перевод 1: Профессиональный (многоголосый, закадровый) | Jaskier 18 +
Перевод 2: Профессиональный (двухголосый, закадровый) | ViruseProject 18 +
Субтитры: Русские (full (Stirlooo 18+)) английские

Файл
Формат: Matroska
Качество: WEB-DLRip 720p
Видео: 1280x534 at 23.976 fps, [email protected], ~3333 kbps
Аудио 1: AC3, 6 ch, ~384 kbps - | Русский | Пчеловод / The Beekeeper (2024) WEB-DLRip 720p от DoMiNo & селезень | P, P2 | Jaskier
Аудио 2: AC3, 6 ch, ~640 kbps - | Русский | | ViruseProject
Аудио 3: AC3, 6 ch, ~448 kbps - | Английский | | Original
Формат субтитров: softsub (SRT)

Авторизуйтесь для получения доступа к скачиванию

Нет аккаунта? Регистрация открыта и займёт меньше минуты

Вход Регистрация

x264 [info]: frame I: 1326 Avg QP: 16.99 size: 85476
x264 [info]: frame P: 38160 Avg QP: 18.26 size: 34869
x264 [info]: frame B: 111902 Avg QP: 20.35 size: 10605

General
Unique ID: 270919565514534599661861318546069882792 (0xCBD135DB1A20D7A9F602F83F7C8787A8)
Complete name: R: The.Beekeeper.2024.P.P2.AMZN.WEB-DLRip.720p.x264.seleZen.mkv
Format: Matroska
Format version: Version 4
File size: 3.53 GiB
Duration: 1 h 45 min
Overall bit rate: 4 807 kb/s
Frame rate: 23.976 FPS
Movie name: The.Beekeeper.2024.P.P2.AMZN.WEB-DLRip.720p.x264.seleZen
Encoded date: 02.02.2024 06:07:06 UTC
Writing application: mkvmerge v82.0 ('I’m The President') 64-bit
Writing library: libebml v1.4.5 + libmatroska v1.7.1
Cover: Yes
Attachments: cover.jpg / small_cover.jpg

Video
ID: 1
Format: AVC
Format/Info: Advanced Video Codec
Format profile: [email protected]
Format settings: CABAC / 5 Ref Frames
Format settings, CABAC: Yes
Format settings, Reference: 5 frames
Codec ID: V_MPEG4/ISO/AVC
Duration: 1 h 45 min
Bit rate: 3 333 kb/s
Width: 1 280 pixels
Height: 534 pixels
Display aspect ratio: 2.40:1
Frame rate mode: Constant
Frame rate: 23.976 (24000/1001) FPS
Color space: YUV
Chroma subsampling: 4:2:0
Bit depth: 8 bits
Scan type: Progressive
Bits/(Pixel*Frame): 0.203
Stream size: 2.45 GiB (69%)
Title: -=DoMiNo=-
Writing library: x264 core 164 r3173 -DoMiNo
Encoding settings: cabac=1 / ref=5 / deblock=1:-2:-1 / analyse=0×3:0×133 / me=umh / subme=10 / psy=1 / psy_rd=1.00:0.15 / mixed_ref=1 / me_range=32 / chroma_me=1 / trellis=2 / 8×8dct=1 / cqm=0 / deadzone=21,11 / fast_pskip=0 / chroma_qp_offset=-3 / threads=17 / lookahead_threads=4 / sliced_threads=0 / nr=0 / decimate=0 / interlaced=0 / bluray_compat=0 / constrained_intra=0 / bframes=10 / b_pyramid=2 / b_adapt=2 / b_bias=0 / direct=1 / weightb=1 / open_gop=0 / weightp=2 / keyint=250 / keyint_min=23 / scenecut=40 / intra_refresh=0 / rc_lookahead=60 / rc=crf / mbtree=0 / crf=18.5 / qcomp=0.60 / qpmin=0 / qpmax=69 / qpstep=4 / vbv_maxrate=50000 / vbv_bufsize=62500 / crf_max=0.0 / nal_hrd=none / filler=0 / ip_ratio=1.30 / pb_ratio=1.30 / aq=1:0.90
Language: English
Default: Yes
Forced: No
Color range: Limited
Color primaries: BT.709
Transfer characteristics: BT.709
Matrix coefficients: BT.709

Audio #1
ID: 2
Format: AC-3
Format/Info: Audio Coding 3
Commercial name: Dolby Digital
Codec ID: A_AC3
Duration: 1 h 45 min
Bit rate mode: Constant
Bit rate: 384 kb/s
Channel (s): 6 channels
Channel layout: L R C LFE Ls Rs
Sampling rate: 48.0 kHz
Frame rate: 31.250 FPS (1536 SPF)
Compression mode: Lossy
Stream size: 289 MiB (8%)
Title: Jaskier
Language: Russian
Service kind: Complete Main
Default: Yes
Forced: No

Audio #2
ID: 3
Format: AC-3
Format/Info: Audio Coding 3
Commercial name: Dolby Digital
Codec ID: A_AC3
Duration: 1 h 45 min
Bit rate mode: Constant
Bit rate: 640 kb/s
Channel (s): 6 channels
Channel layout: L R C LFE Ls Rs
Sampling rate: 48.0 kHz
Frame rate: 31.250 FPS (1536 SPF)
Compression mode: Lossy
Stream size: 482 MiB (13%)
Title: ViruseProject 18 +
Language: Russian
Service kind: Complete Main
Default: No
Forced: No

Audio #3
ID: 4
Format: AC-3
Format/Info: Audio Coding 3
Commercial name: Dolby Digital
Codec ID: A_AC3
Duration: 1 h 45 min
Bit rate mode: Constant
Bit rate: 448 kb/s
Channel (s): 6 channels
Channel layout: L R C LFE Ls Rs
Sampling rate: 48.0 kHz
Frame rate: 31.250 FPS (1536 SPF)
Compression mode: Lossy
Stream size: 337 MiB (9%)
Title: Original
Language: English
Service kind: Complete Main
Default: No
Forced: No

Text #1
ID: 5
Format: UTF-8
Codec ID: S_TEXT/UTF8
Codec ID/Info: UTF-8 Plain Text
Duration: 1 h 40 min
Bit rate: 95 b/s
Frame rate: 0.229 FPS
Count of elements: 1378
Stream size: 70.2 KiB (0%)
Title: Full -Stirlooo
Language: Russian
Default: No
Forced: No

Text #2
ID: 6
Format: UTF-8
Codec ID: S_TEXT/UTF8
Codec ID/Info: UTF-8 Plain Text
Duration: 1 h 36 min
Bit rate: 63 b/s
Frame rate: 0.261 FPS
Count of elements: 1504
Stream size: 44.5 KiB (0%)
Language: English (US)
Default: No
Forced: No

Text #3
ID: 7
Format: UTF-8
Codec ID: S_TEXT/UTF8
Codec ID/Info: UTF-8 Plain Text
Duration: 1 h 39 min
Bit rate: 73 b/s
Frame rate: 0.307 FPS
Count of elements: 1830
Stream size: 53.3 KiB (0%)
Title: SDH
Language: English (US)
Default: No
Forced: No

Menu
00:00:00.000: en: Глава 01
00:05:50.000: en: Глава 02
00:11:40.000: en: Глава 03
00:17:30.000: en: Глава 04
00:23:20.000: en: Глава 05
00:29:10.000: en: Глава 06
00:35:00.000: en: Глава 07
00:40:50.000: en: Глава 08
00:46:40.000: en: Глава 09
00:52:30.000: en: Глава 10
00:58:20.000: en: Глава 11
01:04:10.000: en: Глава 12
01:10:00.000: en: Глава 13
01:15:50.000: en: Глава 14
01:21:40.000: en: Глава 15
01:27:30.000: en: Глава 16
01:33:20.000: en: Глава 17
01:39:10.000: en: Глава 18
01:45:00.000: en: Глава 19

Другие фильмы
У данной публикации пока нет комментариев.
Будь первым, оставь своё мнение в комментариях!
Информация
Посетители, находящиеся в группе Гости, не могут оставлять комментарии к данной публикации.
Самый популярный релиз недели
Донаты
Мы в соц. сетях / RSS

Лучшие релизы месяца
Лучшие SD недели
Лучшие 720p недели
Лучшие 1080p недели
Лучшие 4K недели
Вы недавно смотрели
Реклама
Последние комментарии
...

korelov

23 февраля 2024 14:35

...

Desol

21 февраля 2024 00:28

...

diabloq

20 февраля 2024 14:17

...

slightlymad

17 февраля 2024 21:01

...

takezi

15 февраля 2024 22:10

Реклама