+1

Как женить холостяка / Destination Wedding (2018) BDRip 1080p от селезень | iTunes

Информация о фильме
Название: Как женить холостяка
Оригинальное название: Destination Wedding
Год выхода: 2018
Жанр: Драма, мелодрама, комедия
Режиссер: Виктор Левин
В ролях: Киану Ривз, Вайнона Райдер, Грег Люси, Тед Дюбо, Д. Рош Райт, Курт Дюбо, Донна Линн Джонс, Джеймс Галлардо, Скотт Эндрюс

О фильме: Закоренелый холостяк Фрэнк и коварная соблазнительница Линдси приглашены на одну свадьбу. Странным образом они везде оказываются вместе: в самолете, такси, в соседних номерах и за столом. Похоже, кто-то придумал хитроумный план поймать их в любовные сети и наконец женить холостяка.

Страна: США
Студия: Chapman-Leonard, CISS, Company 3
Продолжительность: 01:26:31
Перевод: Дублированный | iTunes

Качество: BDRip 1080p
Видео: MPEG-4 AVC, 1980x804, 10.5 Mbit/s, 24 fps
Звук:
Аудио #01: 48 kHz, AC3, 5.1, 384 Kbps | iTunes | RUS
Аудио #02: 48 kHz, DTS, 5.1, 1510 Kbps | Оригинал | ENG
Субтитры: Английские

Авторизуйтесь для получения доступа к скачиванию

Нет аккаунта? Регистрация открыта и займёт меньше минуты

Вход Регистрация

General
Unique ID : 47581642385470685410415936433893643173 (0x23CBE417BEE4BF1BFD7FD91F65A793A5)
Complete name : D:Video111Destination.Wedding.2018.BDRip.1080p.selezen.mkv
Format : Matroska
Format version : Version 4
File size : 7.47 GiB
Duration : 1 h 26 min
Overall bit rate : 12.4 Mb/s
Movie name : Destination Wedding 2018 from селезень
Encoded date : UTC 2018-11-30 14:11:25
Writing application : mkvmerge v28.2.0 ('The Awakening') 64-bit
Writing library : libebml v1.3.6 + libmatroska v1.4.9

Video
ID : 1
Format : AVC
Format/Info : Advanced Video Codec
Format profile : [email protected]
Format settings : CABAC / 5 Ref Frames
Format settings, CABAC : Yes
Format settings, ReFrames : 5 frames
Codec ID : V_MPEG4/ISO/AVC
Duration : 1 h 26 min
Bit rate : 10.5 Mb/s
Width : 1 920 pixels
Height : 804 pixels
Display aspect ratio : 2.40:1
Frame rate mode : Constant
Frame rate : 24.000 FPS
Color space : YUV
Chroma subsampling : 4:2:0
Bit depth : 8 bits
Scan type : Progressive
Bits/(Pixel*Frame) : 0.283
Stream size : 6.33 GiB (85%)
Title : selezen
Writing library : x264 core 148 r2705kMod 3f5ed56
Encoding settings : cabac=1 / ref=5 / deblock=1:-2:-2 / analyse=0x3:0x133 / me=umh / subme=10 / psy=1 / fade_compensate=0.00 / psy_rd=1.05:0.05 / mixed_ref=1 / me_range=32 / chroma_me=1 / trellis=2 / 8x8dct=1 / cqm=0 / deadzone=21,11 / fast_pskip=0 / chroma_qp_offset=-3 / threads=12 / lookahead_threads=2 / sliced_threads=0 / nr=0 / decimate=0 / interlaced=0 / bluray_compat=0 / constrained_intra=0 / fgo=0 / bframes=8 / b_pyramid=2 / b_adapt=2 / b_bias=0 / direct=3 / weightb=1 / open_gop=0 / weightp=2 / keyint=240 / keyint_min=24 / scenecut=40 / intra_refresh=0 / rc_lookahead=50 / rc=2pass / mbtree=0 / bitrate=10470 / ratetol=1.0 / qcomp=0.60 / qpmin=0 / qpmax=51 / qpstep=4 / cplxblur=20.0 / qblur=0.5 / vbv_maxrate=50000 / vbv_bufsize=62500 / nal_hrd=none / filler=0 / ip_ratio=1.40 / pb_ratio=1.30 / aq=3:0.80
Language : English
Default : Yes
Forced : No

Audio #1
ID : 2
Format : AC-3
Format/Info : Audio Coding 3
Commercial name : Dolby Digital
Codec ID : A_AC3
Duration : 1 h 26 min
Bit rate mode : Constant
Bit rate : 384 kb/s
Channel(s) : 6 channels
Channel layout : L R C LFE Ls Rs
Sampling rate : 48.0 kHz
Frame rate : 31.250 FPS (1536 SPF)
Bit depth : 16 bits
Compression mode : Lossy
Stream size : 238 MiB (3%)
Title : iTunes
Language : Russian
Service kind : Complete Main
Default : Yes
Forced : Yes

Audio #2
ID : 3
Format : DTS
Format/Info : Digital Theater Systems
Codec ID : A_DTS
Duration : 1 h 26 min
Bit rate mode : Constant
Bit rate : 1 509 kb/s
Channel(s) : 6 channels
Channel layout : C L R Ls Rs LFE
Sampling rate : 48.0 kHz
Frame rate : 93.750 FPS (512 SPF)
Bit depth : 16 bits
Compression mode : Lossy
Stream size : 934 MiB (12%)
Title : Original
Language : English
Default : No
Forced : No

Text
ID : 4
Format : UTF-8
Codec ID : S_TEXT/UTF8
Codec ID/Info : UTF-8 Plain Text
Duration : 1 h 20 min
Bit rate : 124 b/s
Count of elements : 1520
Stream size : 73.7 KiB (0%)
Title : SDH Colored
Language : English
Default : No
Forced : No

Menu
00:00:00.000 : en:00:00:00.000
00:08:57.792 : en:00:08:57.792
00:14:35.042 : en:00:14:35.042
00:22:16.542 : en:00:22:16.542
00:28:27.667 : en:00:28:27.667
00:36:07.708 : en:00:36:07.708
00:41:29.167 : en:00:41:29.167
00:49:59.583 : en:00:49:59.583
00:58:12.250 : en:00:58:12.250
01:06:43.417 : en:01:06:43.417
01:15:41.250 : en:01:15:41.250
01:21:28.708 : en:01:21:28.708

Другие фильмы
Комментарии:

...
dean24k 27 декабря 2019 10:07
0

А в 720р релиз будет?

Информация
Посетители, находящиеся в группе Гости, не могут оставлять комментарии к данной публикации.
Самый популярный релиз недели
Донаты
Мы в соц. сетях / RSS

Лучшие релизы месяца
Лучшие SD недели
Лучшие 720p недели
Лучшие 1080p недели
Лучшие 4K недели
Вы недавно смотрели
Реклама
Последние комментарии
...

Bonzo

14 июня 2024 14:52

...

rmzshka

13 июня 2024 17:48

...

rmzshka

13 июня 2024 12:24

...

LisNick

13 июня 2024 08:45

...

SkySpirit

8 июня 2024 19:54

Реклама