+8

Голодные игры: Баллада о змеях и певчих птицах / The Hunger Games: The Ballad of Songbirds & Snakes (2023) BDRemux 1080p от селезень | D

Информация о фильме
Название: Голодные игры: Баллада о змеях и певчих птицах
Оригинальное название: The Hunger Games: The Ballad of Songbirds & Snakes
Год выхода: 2023
Жанр: фантастика, боевик, триллер, драма, приключения, военный
Режиссер: Фрэнсис Лоуренс
В ролях: Том Блайт, Рэйчел Зеглер, Питер Динклэйдж, Хантер Шафер, Джош Андрес Ривера, Джейсон Шварцман, Виола Дэвис, Финола Флэнаган, Берн Горман, Эшли Ляо

О фильме: До того как стать деспотичным президентом Панэма, молодой Кориолан Сноу был последней надеждой своего увядающего рода - некогда великой династии, впавшей в немилость послевоенного Капитолия. Накануне десятых ежегодных Голодных игр Сноу назначают наставником Люси Грей Бэйрд - трибута дистрикта 12. Постепенно девушка привлекает все больше внимание Панэма, становясь фавориткой грядущего соревнования. Готовый на всё, чтобы вернуть своей семье былое величие, Сноу решает обратить ситуацию с Люси в свою пользу. Начинается гонка со временем, которая покажет, кто певчая птица, а кто - змея.

Страна: США, Канада
Студия: Color Force, Good Universe, Lionsgate
Продолжительность: 02:37:10
Перевод: Дублированный | Мосфильм-Мастер

Качество: BDRemux 1080p
Видео: MPEG-4 AVC, 1920x1080, 22100 Kbit/s, 23.976 fps
Аудио #01: 48 kHz, AC3, 5.1, 448 Kbps | Дублированный | Мосфильм-Мастер | RUS |Голодные игры: Баллада о змеях и певчих птицах / The Hunger Games: The Ballad of Songbirds & Snakes (2023) BDRemux 1080p от селезень | D
Аудио #02: 48 kHz, TrueHD, 5.1, 4202 Kbps | Оригинал | ENG |
Аудио #03: 48 kHz, AC3, 7.1, 640 Kbps | Оригинал | ENG |
Субтитры: Русские (Forced), английские

Голодные игры: Баллада о змеях и певчих птицах / The Hunger Games: The Ballad of Songbirds & Snakes (2023) BDRemux 1080p от селезень | D

Авторизуйтесь для получения доступа к скачиванию

Нет аккаунта? Регистрация открыта и займёт меньше минуты

Вход Регистрация

General
Unique ID : 191647755732525098872543288955623974086 (0x902E03E121BB21E0E4685EA9ED3C24C6)
Complete name : H:\VideoH\The.Hunger.Games.The.Ballad.of.Songbirds.and.Snakes.2023.BDREMUX.1080p.seleZen.mkv
Format : Matroska
Format version : Version 4
File size : 30.2 GiB
Duration : 2 h 37 min
Overall bit rate mode : Variable
Overall bit rate : 27.5 Mb/s
Frame rate : 23.976 FPS
Movie name : The Hunger Games: The Ballad Of Songbirds And Snakes 2023 from seleZen
Encoded date : 2024-02-06 02:30:52 UTC
Writing application : mkvmerge v80.0 ('Roundabout') 64-bit
Writing library : libebml v1.4.4 + libmatroska v1.7.1

Video
ID : 1
ID in the original source m : 4113 (0x1011)
Format : AVC
Format/Info : Advanced Video Codec
Format profile : [email protected]
Format settings : CABAC / 4 Ref Frames
Format settings, CABAC : Yes
Format settings, Reference : 4 frames
Codec ID : V_MPEG4/ISO/AVC
Duration : 2 h 37 min
Bit rate mode : Variable
Bit rate : 22.1 Mb/s
Maximum bit rate : 36.9 Mb/s
Width : 1 920 pixels
Height : 1 080 pixels
Display aspect ratio : 16:9
Frame rate mode : Constant
Frame rate : 23.976 (24000/1001) FPS
Color space : YUV
Chroma subsampling : 4:2:0
Bit depth : 8 bits
Scan type : Progressive
Bits/(Pixel*Frame) : 0.445
Time code of first frame : 00:59:59:00
Stream size : 24.3 GiB (81%)
Language : English
Default : Yes
Forced : No
Original source medium : Blu-ray

Audio #1
ID : 2
Format : AC-3
Format/Info : Audio Coding 3
Commercial name : Dolby Digital
Codec ID : A_AC3
Duration : 2 h 37 min
Bit rate mode : Constant
Bit rate : 448 kb/s
Channel(s) : 6 channels
Channel layout : L R C LFE Ls Rs
Sampling rate : 48.0 kHz
Frame rate : 31.250 FPS (1536 SPF)
Compression mode : Lossy
Stream size : 504 MiB (2%)
Title : Dub
Language : Russian
Service kind : Complete Main
Default : Yes
Forced : No

Audio #2
ID : 3
ID in the original source m : 4352 (0x1100)
Format : MLP FBA 16-ch
Format/Info : Meridian Lossless Packing FBA with 16-channel presentation
Commercial name : Dolby TrueHD with Dolby Atmos
Codec ID : A_TRUEHD
Duration : 2 h 37 min
Bit rate mode : Variable
Bit rate : 4 202 kb/s
Maximum bit rate : 7 395 kb/s
Channel(s) : 8 channels
Channel layout : L R C LFE Ls Rs Lb Rb
Sampling rate : 48.0 kHz
Frame rate : 1 200.000 FPS (40 SPF)
Compression mode : Lossless
Stream size : 4.61 GiB (15%)
Title : Original
Language : English
Default : No
Forced : No
Original source medium : Blu-ray
Number of dynamic objects : 11
Bed channel count : 1 channel
Bed channel configuration : LFE

Audio #3
ID : 4
ID in the original source m : 4352 (0x1100)
Format : AC-3
Format/Info : Audio Coding 3
Commercial name : Dolby Digital
Codec ID : A_AC3
Duration : 2 h 37 min
Bit rate mode : Constant
Bit rate : 640 kb/s
Channel(s) : 6 channels
Channel layout : L R C LFE Ls Rs
Sampling rate : 48.0 kHz
Frame rate : 31.250 FPS (1536 SPF)
Compression mode : Lossy
Stream size : 719 MiB (2%)
Language : English
Service kind : Complete Main
Default : No
Forced : No
Original source medium : Blu-ray

Text #1
ID : 5
Format : UTF-8
Codec ID : S_TEXT/UTF8
Codec ID/Info : UTF-8 Plain Text
Duration : 1 h 55 min
Bit rate : 8 b/s
Frame rate : 0.020 FPS
Count of elements : 136
Stream size : 7.58 KiB (0%)
Title : Forced
Language : Russian
Default : Yes
Forced : No

Text #2
ID : 6
Format : UTF-8
Codec ID : S_TEXT/UTF8
Codec ID/Info : UTF-8 Plain Text
Duration : 2 h 26 min
Bit rate : 61 b/s
Frame rate : 0.259 FPS
Count of elements : 2269
Stream size : 65.9 KiB (0%)
Title : Full
Language : English
Default : No
Forced : No

Menu
00:00:00.000 : en:Chapter 01
00:12:36.505 : en:Chapter 02
00:24:22.586 : en:Chapter 03
00:34:06.002 : en:Chapter 04
00:46:53.936 : en:Chapter 05
00:56:09.741 : en:Chapter 06
01:08:28.437 : en:Chapter 07
01:19:22.424 : en:Chapter 08
01:26:41.112 : en:Chapter 09
01:33:59.508 : en:Chapter 10
01:40:45.706 : en:Chapter 11
01:47:35.657 : en:Chapter 12
01:54:55.680 : en:Chapter 13
02:05:09.543 : en:Chapter 14
02:13:03.392 : en:Chapter 15
02:19:05.795 : en:Chapter 16

Другие фильмы
У данной публикации пока нет комментариев.
Будь первым, оставь своё мнение в комментариях!
Информация
Посетители, находящиеся в группе Гости, не могут оставлять комментарии к данной публикации.
Самый популярный релиз недели
Донаты
Мы в соц. сетях / RSS

Лучшие релизы месяца
Лучшие SD недели
Лучшие 720p недели
Лучшие 1080p недели
Лучшие 4K недели
Вы недавно смотрели
Реклама
Последние комментарии
...

korelov

23 февраля 2024 14:35

...

Desol

21 февраля 2024 00:28

...

diabloq

20 февраля 2024 14:17

...

slightlymad

17 февраля 2024 21:01

...

takezi

15 февраля 2024 22:10

Реклама