+6

Капитан Марвел 2 / The Marvels (2023) UHD BDRemux 2160p от селезень | 4K | HDR | D

Информация о фильме
Название: Капитан Марвел 2
Оригинальное название: The Marvels
Год выхода: 2023
Жанр: фантастика, боевик, приключения
Режиссер: Ниа ДаКоста
В ролях: Бри Ларсон, Тейона Паррис, Иман Веллани, Сэмюэл Л. Джексон, Зави Эштон, Гари Льюис, Пак Со-джун, Зенобия Шрофф, Мохан Капур, Саагар Шайх

О фильме: Расследуя возникновение аномалии точки перехода, Кэрол Дэнверс и Моника Рамбо независимо друг от друга одновременно касаются её и тем самым спутывают свои силы с Камалой Хан. Теперь девушки меняются местами, когда кто-нибудь из них использует сверхспособности. А в это время предводительница кри с помощью одного из Квантовых наручей (точно такого же, какой достался Камале по наследству) пытается спасти свою планету от гибели, воруя ресурсы у других планет. Чтобы не допустить хаос, Кэрол, Монике и восторженной от грядущего приключения Камале предстоит научиться работать в команде.

Страна: США
Студия: Marvel Studios Inc.
Продолжительность: 01:44:44
Перевод(ы):
#1: Дублированный (официальный) | MovieDalen
#2: Дублированный (неофициальный) | Red Head Sound


Качество: BDRemux 2160p
Видео: 3840x2160 at 23.976 fps, MPEG-H HEVC HDR Video, 51700 kbps
Аудио #01: 48 kHz, AC3, 5.1, 448 Kbps | Дублированный | MovieDalen | RUS |Капитан Марвел 2 / The Marvels (2023) UHD BDRemux 2160p от селезень | 4K | HDR | D
Аудио #02: 48 kHz, AC3, 5.1, 640 Kbps | Дублированный | Red Head Sound | RUS |
Аудио #03: 48 kHz, TrueHD, 7.1, 4686 Kbps | Оригинал | ENG |
Аудио #04: 48 kHz, AC3, 5.1, 640 Kbps | Оригинал | ENG |
Субтитры: Русские (Forced, full), английские

Капитан Марвел 2 / The Marvels (2023) UHD BDRemux 2160p от селезень | 4K | HDR | D

Авторизуйтесь для получения доступа к скачиванию

Нет аккаунта? Регистрация открыта и займёт меньше минуты

Вход Регистрация

General
Unique ID : 130853223560782395049966466764948594601 (0x62716A063A5A4134C5F08DB58CFF5FA9)
Complete name : H:\VideoH\The.Marvels.2023.BDREMUX.2160p.HDR.seleZen.mkv
Format : Matroska
Format version : Version 4
File size : 42.6 GiB
Duration : 1 h 44 min
Overall bit rate mode : Variable
Overall bit rate : 58.2 Mb/s
Frame rate : 23.976 FPS
Movie name : The Marvels 2023 от селезень
Encoded date : 2024-02-07 07:35:27 UTC
Writing application : mkvmerge v80.0 ('Roundabout') 64-bit
Writing library : libebml v1.4.4 + libmatroska v1.7.1

Video
ID : 1
Format : HEVC
Format/Info : High Efficiency Video Coding
Format profile : Main [email protected]@High
HDR format : SMPTE ST 2086, HDR10 compatible
Codec ID : V_MPEGH/ISO/HEVC
Duration : 1 h 44 min
Bit rate : 51.7 Mb/s
Width : 3 840 pixels
Height : 2 160 pixels
Display aspect ratio : 16:9
Frame rate mode : Constant
Frame rate : 23.976 (24000/1001) FPS
Color space : YUV
Chroma subsampling : 4:2:0 (Type 2)
Bit depth : 10 bits
Bits/(Pixel*Frame) : 0.260
Stream size : 37.8 GiB (89%)
Default : Yes
Forced : No
Color range : Limited
Color primaries : BT.2020
Transfer characteristics : PQ
Matrix coefficients : BT.2020 non-constant
Mastering display color pri : BT.2020
Mastering display luminance : min: 0.0050 cd/m2, max: 1000 cd/m2

Audio #1
ID : 2
Format : AC-3
Format/Info : Audio Coding 3
Commercial name : Dolby Digital
Codec ID : A_AC3
Duration : 1 h 44 min
Bit rate mode : Constant
Bit rate : 448 kb/s
Channel(s) : 6 channels
Channel layout : L R C LFE Ls Rs
Sampling rate : 48.0 kHz
Frame rate : 31.250 FPS (1536 SPF)
Compression mode : Lossy
Stream size : 336 MiB (1%)
Title : Dub_MovieDalen
Language : Russian
Service kind : Complete Main
Default : Yes
Forced : No

Audio #2
ID : 3
Format : AC-3
Format/Info : Audio Coding 3
Commercial name : Dolby Digital
Codec ID : A_AC3
Duration : 1 h 44 min
Bit rate mode : Constant
Bit rate : 640 kb/s
Channel(s) : 6 channels
Channel layout : L R C LFE Ls Rs
Sampling rate : 48.0 kHz
Frame rate : 31.250 FPS (1536 SPF)
Compression mode : Lossy
Stream size : 479 MiB (1%)
Title : Dub_Red Head Sound
Language : Russian
Service kind : Complete Main
Default : No
Forced : No

Audio #3
ID : 4
Format : MLP FBA 16-ch
Format/Info : Meridian Lossless Packing FBA with 16-channel presentation
Commercial name : Dolby TrueHD with Dolby Atmos
Codec ID : A_TRUEHD
Duration : 1 h 44 min
Bit rate mode : Variable
Bit rate : 4 686 kb/s
Maximum bit rate : 8 028 kb/s
Channel(s) : 8 channels
Channel layout : L R C LFE Ls Rs Lb Rb
Sampling rate : 48.0 kHz
Frame rate : 1 200.000 FPS (40 SPF)
Compression mode : Lossless
Stream size : 3.43 GiB (8%)
Title : Original
Language : English
Default : No
Forced : No
Number of dynamic objects : 13
Bed channel count : 1 channel
Bed channel configuration : LFE

Audio #4
ID : 5
Format : AC-3
Format/Info : Audio Coding 3
Commercial name : Dolby Digital
Codec ID : A_AC3
Duration : 1 h 44 min
Bit rate mode : Constant
Bit rate : 640 kb/s
Channel(s) : 6 channels
Channel layout : L R C LFE Ls Rs
Sampling rate : 48.0 kHz
Frame rate : 31.250 FPS (1536 SPF)
Compression mode : Lossy
Stream size : 480 MiB (1%)
Language : English
Service kind : Complete Main
Default : No
Forced : No

Text #1
ID : 6
Format : UTF-8
Codec ID : S_TEXT/UTF8
Codec ID/Info : UTF-8 Plain Text
Duration : 1 h 33 min
Bit rate : 1 b/s
Frame rate : 0.004 FPS
Count of elements : 21
Stream size : 829 Bytes (0%)
Title : Forced
Language : Russian
Default : Yes
Forced : No

Text #2
ID : 7
Format : UTF-8
Codec ID : S_TEXT/UTF8
Codec ID/Info : UTF-8 Plain Text
Duration : 1 h 42 min
Bit rate : 75 b/s
Frame rate : 0.200 FPS
Count of elements : 1226
Stream size : 56.9 KiB (0%)
Title : Full
Language : Russian
Default : No
Forced : No

Text #3
ID : 8
Format : UTF-8
Codec ID : S_TEXT/UTF8
Codec ID/Info : UTF-8 Plain Text
Duration : 1 h 35 min
Bit rate : 55 b/s
Frame rate : 0.211 FPS
Count of elements : 1207
Stream size : 38.5 KiB (0%)
Title : Full
Language : English
Default : No
Forced : No

Text #4
ID : 9
Format : UTF-8
Codec ID : S_TEXT/UTF8
Codec ID/Info : UTF-8 Plain Text
Duration : 1 h 44 min
Bit rate : 64 b/s
Frame rate : 0.285 FPS
Count of elements : 1791
Stream size : 49.8 KiB (0%)
Title : SDH
Language : English
Default : No
Forced : No

Menu
00:00:00.000 : en:Глава 01
00:04:20.886 : en:Глава 02
00:04:20.969 : en:Глава 03
00:07:02.922 : en:Глава 04
00:07:03.006 : en:Глава 05
00:11:09.627 : en:Глава 06
00:11:09.711 : en:Глава 07
00:14:14.187 : en:Глава 08
00:14:14.270 : en:Глава 09
00:21:08.934 : en:Глава 10
00:21:09.018 : en:Глава 11
00:27:19.805 : en:Глава 12
00:27:19.888 : en:Глава 13
00:29:42.656 : en:Глава 14
00:29:42.739 : en:Глава 15
00:33:25.420 : en:Глава 16
00:33:25.503 : en:Глава 17
00:38:07.994 : en:Глава 18
00:38:08.077 : en:Глава 19
00:43:50.169 : en:Глава 20
00:43:50.253 : en:Глава 21
00:48:06.050 : en:Глава 22
00:48:06.133 : en:Глава 23
00:50:26.732 : en:Глава 24
00:50:26.815 : en:Глава 25
00:52:30.939 : en:Глава 26
00:52:31.023 : en:Глава 27
00:58:51.987 : en:Глава 28
00:58:52.070 : en:Глава 29
01:05:07.612 : en:Глава 30
01:05:07.695 : en:Глава 31
01:09:47.600 : en:Глава 32
01:09:47.683 : en:Глава 33
01:17:14.463 : en:Глава 34
01:17:14.547 : en:Глава 35
01:23:56.949 : en:Глава 36
01:23:57.032 : en:Глава 37
01:27:24.948 : en:Глава 38
01:27:25.031 : en:Глава 39
01:29:49.926 : en:Глава 40
01:29:50.010 : en:Глава 41
01:32:04.018 : en:Глава 42
01:32:04.102 : en:Глава 43
01:33:11.002 : en:Глава 44
01:33:11.085 : en:Глава 45
01:35:53.748 : en:Глава 46
01:35:53.831 : en:Глава 47
01:37:35.099 : en:Глава 48
01:37:35.183 : en:Глава 49
01:44:44.653 : en:Глава 50

Другие фильмы
У данной публикации пока нет комментариев.
Будь первым, оставь своё мнение в комментариях!
Информация
Посетители, находящиеся в группе Гости, не могут оставлять комментарии к данной публикации.
Самый популярный релиз недели
Донаты
Мы в соц. сетях / RSS

Лучшие релизы месяца
Лучшие SD недели
Лучшие 720p недели
Лучшие 1080p недели
Лучшие 4K недели
Вы недавно смотрели
Реклама
Последние комментарии
...

korelov

23 февраля 2024 14:35

...

Desol

21 февраля 2024 00:28

...

diabloq

20 февраля 2024 14:17

...

slightlymad

17 февраля 2024 21:01

...

takezi

15 февраля 2024 22:10

Реклама