+7

Кто угодно, кроме тебя / Anyone But You (2023) WEB-DLRip 720p от DoMiNo & селезень | P

Информация о фильме
Название: Кто угодно, кроме тебя
Оригинальное название: Anyone But You
Жанр: мелодрама, комедия
Год выпуска: 2023
Режиссер: Уилл Глак / Will Gluck
В ролях: Сидни Суини, Глен Пауэлл, Александра Шипп, Даррен Барнет, Брайан Браун, Джо Дэвидсон, Гата, Рэйчел Гриффитс, Мишель Херд, Дермот Малруни, Хэдли Робинсон

Описание:
После первого свидания взаимная симпатия между Би и Беном быстро перерастает в ненависть. Однако, оказавшись гостями на свадьбе, они решают притвориться парой.

Страна: США, Австралия, Fifty-Fifty Films, Olive Bridge Entertainment, Roth/Kirschenbaum Films
Продолжительность: 01:43:29
Перевод: Профессиональный (многоголосый закадровый) - Лицензия

Файл
Формат: Matroska
Качество: WEB-DLRip 720p
Видео: 1280x536 at 23.976 fps, [email protected], ~2942 kbps
Аудио 1: AC3, 6 ch, ~384 kbps - | Русский | Кто угодно, кроме тебя / Anyone But You (2023) WEB-DLRip 720p от DoMiNo & селезень | P
Аудио 2: AC3, 6 ch, ~384 kbps - | Английский |
Субтитры: Нет

Авторизуйтесь для получения доступа к скачиванию

Нет аккаунта? Регистрация открыта и займёт меньше минуты

Вход Регистрация

General
Unique ID: 122401589314942364807352506358886331379 (0×5C15B048C27627040BAB89B1E43873F3)
Complete name: R: Anyone.But.You.2023.MVO.WEB-DLRip.720p.x264.seleZen.mkv
Format: Matroska
Format version: Version 4
File size: 2.68 GiB
Duration: 1 h 43 min
Overall bit rate: 3 713 kb/s
Frame rate: 23.976 FPS
Movie name: Anyone.But.You.2023.MVO.WEB-DLRip.720p.x264.seleZen
Encoded date: 08.02.2024 10:26:21 UTC
Writing application: mkvmerge v82.0 ('I’m The President') 64-bit
Writing library: libebml v1.4.5 + libmatroska v1.7.1
Cover: Yes
Attachments: cover.jpg / small_cover.jpg

Video
ID: 1
Format: AVC
Format/Info: Advanced Video Codec
Format profile: [email protected]
Format settings: CABAC / 5 Ref Frames
Format settings, CABAC: Yes
Format settings, Reference: 5 frames
Codec ID: V_MPEG4/ISO/AVC
Duration: 1 h 43 min
Bit rate: 2 942 kb/s
Width: 1 280 pixels
Height: 536 pixels
Display aspect ratio: 2.40:1
Frame rate mode: Constant
Frame rate: 23.976 (24000/1001) FPS
Color space: YUV
Chroma subsampling: 4:2:0
Bit depth: 8 bits
Scan type: Progressive
Bits/(Pixel*Frame): 0.179
Stream size: 2.13 GiB (79%)
Title: -=DoMiNo=-
Writing library: x264 core 164 r3173 -DoMiNo
Encoding settings: cabac=1 / ref=5 / deblock=1:-1:-1 / analyse=0×3:0×133 / me=umh / subme=10 / psy=1 / psy_rd=1.00:0.15 / mixed_ref=1 / me_range=32 / chroma_me=1 / trellis=2 / 8×8dct=1 / cqm=0 / deadzone=21,11 / fast_pskip=0 / chroma_qp_offset=-3 / threads=17 / lookahead_threads=4 / sliced_threads=0 / nr=0 / decimate=0 / interlaced=0 / bluray_compat=0 / constrained_intra=0 / bframes=10 / b_pyramid=2 / b_adapt=2 / b_bias=0 / direct=1 / weightb=1 / open_gop=0 / weightp=2 / keyint=250 / keyint_min=23 / scenecut=40 / intra_refresh=0 / rc_lookahead=60 / rc=crf / mbtree=0 / crf=19.5 / qcomp=0.60 / qpmin=0 / qpmax=69 / qpstep=4 / vbv_maxrate=50000 / vbv_bufsize=62500 / crf_max=0.0 / nal_hrd=none / filler=0 / ip_ratio=1.40 / pb_ratio=1.27 / aq=3:0.90
Language: English
Default: Yes
Forced: No
Color range: Limited
Color primaries: BT.709
Transfer characteristics: BT.709
Matrix coefficients: BT.709

Audio #1
ID: 2
Format: AC-3
Format/Info: Audio Coding 3
Commercial name: Dolby Digital
Codec ID: A_AC3
Duration: 1 h 43 min
Bit rate mode: Constant
Bit rate: 384 kb/s
Channel (s): 6 channels
Channel layout: L R C LFE Ls Rs
Sampling rate: 48.0 kHz
Frame rate: 31.250 FPS (1536 SPF)
Compression mode: Lossy
Stream size: 284 MiB (10%)
Title: MVO
Language: Russian
Service kind: Complete Main
Default: Yes
Forced: No

Audio #2
ID: 3
Format: AC-3
Format/Info: Audio Coding 3
Commercial name: Dolby Digital
Codec ID: A_AC3
Duration: 1 h 43 min
Bit rate mode: Constant
Bit rate: 384 kb/s
Channel (s): 6 channels
Channel layout: L R C LFE Ls Rs
Sampling rate: 48.0 kHz
Frame rate: 31.250 FPS (1536 SPF)
Compression mode: Lossy
Stream size: 284 MiB (10%)
Language: English
Service kind: Complete Main
Default: No
Forced: No

Menu
00:00:00.000: en: Chapter 01
00:05:50.000: en: Chapter 02
00:11:40.000: en: Chapter 03
00:17:30.000: en: Chapter 04
00:23:20.000: en: Chapter 05
00:29:10.000: en: Chapter 06
00:35:00.000: en: Chapter 07
00:40:50.000: en: Chapter 08
00:46:40.000: en: Chapter 09
00:52:30.000: en: Chapter 10
00:58:20.000: en: Chapter 11
01:04:10.000: en: Chapter 12
01:10:00.000: en: Chapter 13
01:15:50.000: en: Chapter 14
01:21:40.000: en: Chapter 15
01:27:30.000: en: Chapter 16
01:33:20.000: en: Chapter 17
01:39:10.000: en: Chapter 18

Другие фильмы
У данной публикации пока нет комментариев.
Будь первым, оставь своё мнение в комментариях!
Информация
Посетители, находящиеся в группе Гости, не могут оставлять комментарии к данной публикации.
Самый популярный релиз недели
Донаты
Мы в соц. сетях / RSS

Лучшие релизы месяца
Лучшие SD недели
Лучшие 720p недели
Лучшие 1080p недели
Лучшие 4K недели
Вы недавно смотрели
Реклама
Последние комментарии
...

korelov

23 февраля 2024 14:35

...

Desol

21 февраля 2024 00:28

...

diabloq

20 февраля 2024 14:17

...

slightlymad

17 февраля 2024 21:01

...

takezi

15 февраля 2024 22:10

Реклама