+25

Полиция Токио / Tokyo Vice [02x01-10 из 10] (2024) WEB-DLRip-AVC от DoMiNo & селезень | P

Информация о фильме
Название: Полиция Токио
Оригинальное название: Tokyo Vice
Год выхода: 2024
Жанр: триллер, драма, криминал
Режиссер: Джозеф Владыка, Киёка Миядзаки, Майкл Манн
В ролях: Энсел Элгорт, Кэн Ватанабэ, Рэйчел Келлер, Сё Касамацу, Томохиса Ямасита, Элла Румпф, Сюн Сугата, Масато Хагивара, Косукэ Тоёхара, Аюми Танида

О фильме:
1990-е. Джейк Адельштейн (Элгорт) переезжает из Миссури в Японию, чтобы стать первым американским журналистом в местной газете. Его профиль — криминальная жизнь Токио, разобраться в которой янки помогает опытный детектив Хирото Катагири (Ватанабе). Начав с коррупции в полицейских участках, Адельштейн все глубже погружается в мир якудза.

Сериал основан на реальных событиях и книге Адельштейна, которого изначально должен был играть Дэниэл Рэдклифф. В режиссерском кресле — Майкл Манн, Киёка Миядзаки («37 секунд») и Дестин Дэниел Креттон («Короткий срок 12» и «Шан-чи»).

Страна: США
Продолжительность: ~00:55:00 серия
Перевод: Профессиональный (многоголосый, закадровый) HDrezka Studio
Субтитры: Русские (Forced), английские (Forced -Hardsub, Full, SDH)

Файл
Формат: Matroska
Качество: WEB-DLRip-AVC
Видео: 1024x512 at 23.976 fps, [email protected], ~1361 kbps
Аудио: AC3, 2 ch, ~192 kbps - | Русский | Полиция Токио / Tokyo Vice [02x01-10 из 10] (2024) WEB-DLRip-AVC от DoMiNo & селезень | P
Формат субтитров: softsub (SRT)

Авторизуйтесь для получения доступа к скачиванию

Нет аккаунта? Регистрация открыта и займёт меньше минуты

Вход Регистрация

x264 [info]: frame I:611 Avg QP:14.89 size: 47094
x264 [info]: frame P:17051 Avg QP:16.89 size: 18023
x264 [info]: frame B:65120 Avg QP:18.85 size: 3859

General
Unique ID : 212130879911797015339980779934166373086 (0x9F96EBDF3DA5022A1718C0D7A49D52DE)
Complete name : E:Tokyo.Viсе.S02.WEB-DLRip.x264.seleZenTokyo.Vice.S02E01.WEB-DLRip.x264.seleZen.mkv
Format : Matroska
Format version : Version 4
File size : 640 MiB
Duration : 57 min 32 s
Overall bit rate : 1 555 kb/s
Frame rate : 23.976 FPS
Movie name : Tokyo.Vice.S02E01.WEB-DLRip.x264.seleZen
Encoded date : 2024-02-10 13:50:09 UTC
Writing application : mkvmerge v82.0 ('I'm The President') 64-bit
Writing library : libebml v1.4.5 + libmatroska v1.7.1
Cover : Yes
Attachments : cover.jpg / small_cover.jpg

Video
ID : 1
Format : AVC
Format/Info : Advanced Video Codec
Format profile : [email protected]
Format settings : CABAC / 10 Ref Frames
Format settings, CABAC : Yes
Format settings, Reference : 10 frames
Codec ID : V_MPEG4/ISO/AVC
Duration : 57 min 32 s
Bit rate : 1 361 kb/s
Width : 1 024 pixels
Height : 512 pixels
Display aspect ratio : 2.000
Frame rate mode : Constant
Frame rate : 23.976 (24000/1001) FPS
Color space : YUV
Chroma subsampling : 4:2:0
Bit depth : 8 bits
Scan type : Progressive
Bits/(Pixel*Frame) : 0.108
Stream size : 560 MiB (88%)
Title : -=DoMiNo=-
Writing library : x264 core 164 r3173 -DoMiNo
Encoding settings : cabac=1 / ref=10 / deblock=1:-2:-1 / analyse=0x3:0x133 / me=umh / subme=10 / psy=1 / psy_rd=1.02:0.15 / mixed_ref=1 / me_range=32 / chroma_me=1 / trellis=2 / 8x8dct=1 / cqm=0 / deadzone=21,11 / fast_pskip=0 / chroma_qp_offset=-3 / threads=17 / lookahead_threads=4 / sliced_threads=0 / nr=0 / decimate=0 / interlaced=0 / bluray_compat=0 / constrained_intra=0 / bframes=10 / b_pyramid=2 / b_adapt=2 / b_bias=0 / direct=1 / weightb=1 / open_gop=0 / weightp=2 / keyint=250 / keyint_min=23 / scenecut=40 / intra_refresh=0 / rc_lookahead=60 / rc=crf / mbtree=0 / crf=19.0 / qcomp=0.60 / qpmin=0 / qpmax=69 / qpstep=4 / vbv_maxrate=50000 / vbv_bufsize=62500 / crf_max=0.0 / nal_hrd=none / filler=0 / ip_ratio=1.35 / pb_ratio=1.30 / aq=1:0.90
Language : English
Default : Yes
Forced : No
Color range : Limited
Color primaries : BT.709
Transfer characteristics : BT.709
Matrix coefficients : BT.709

Audio
ID : 2
Format : AC-3
Format/Info : Audio Coding 3
Commercial name : Dolby Digital
Codec ID : A_AC3
Duration : 57 min 32 s
Bit rate mode : Constant
Bit rate : 192 kb/s
Channel(s) : 2 channels
Channel layout : L R
Sampling rate : 48.0 kHz
Frame rate : 31.250 FPS (1536 SPF)
Compression mode : Lossy
Stream size : 79.0 MiB (12%)
Title : HDRezka Studio
Language : Russian
Service kind : Complete Main
Default : Yes
Forced : No

Text #1
ID : 3
Format : UTF-8
Codec ID : S_TEXT/UTF8
Codec ID/Info : UTF-8 Plain Text
Duration : 47 min 37 s
Bit rate : 2 b/s
Frame rate : 0.008 FPS
Count of elements : 24
Stream size : 943 Bytes (0%)
Title : Forced
Language : Russian
Default : No
Forced : No

Text #2
ID : 4
Format : UTF-8
Codec ID : S_TEXT/UTF8
Codec ID/Info : UTF-8 Plain Text
Duration : 53 min 31 s
Bit rate : 44 b/s
Frame rate : 0.166 FPS
Count of elements : 534
Stream size : 17.5 KiB (0%)
Language : English
Default : No
Forced : No

Text #3
ID : 5
Format : UTF-8
Codec ID : S_TEXT/UTF8
Codec ID/Info : UTF-8 Plain Text
Duration : 56 min 24 s
Bit rate : 30 b/s
Frame rate : 0.144 FPS
Count of elements : 488
Stream size : 12.5 KiB (0%)
Title : SDH
Language : English
Default : No
Forced : No

Menu
00:00:00.000 : en:Intro
00:01:13.235 : en:Chapter 1
00:13:15.038 : en:Chapter 3
00:25:54.964 : en:Chapter 4
00:34:49.915 : en:Chapter 5
00:42:20.240 : en:Chapter 6
00:56:32.675 : en:Credits
00:57:24.685 : en:Chapter 7

Другие фильмы
У данной публикации пока нет комментариев.
Будь первым, оставь своё мнение в комментариях!
Информация
Посетители, находящиеся в группе Гости, не могут оставлять комментарии к данной публикации.
Самый популярный релиз недели
Донаты
Мы в соц. сетях / RSS

Лучшие релизы месяца
Лучшие SD недели
Лучшие 720p недели
Лучшие 1080p недели
Лучшие 4K недели
Вы недавно смотрели
Реклама
Последние комментарии
...

Tony1984

Вчера, 14:36

...

bolonka123

19 апреля 2024 10:05

...

Sergunka

17 апреля 2024 23:31

...

-=DoMiNo=-

17 апреля 2024 13:52

...

bolonka123

17 апреля 2024 11:43

Реклама