+7

Сталкер / Stalker (2022) WEB-DL 1080p от селезень | D | Локализованная версия

Информация о фильме
Название: Сталкер
Оригинальное название: Stalker
Год выхода: 2022
Жанр: ужасы, триллер
Режиссер: Стив Джонсон
В ролях: Стюарт Бреннан, Додди Эль-Габри, Брэт Харт, Софи Скелтон

О фильме: Застрять в жутком старом лифте поздно вечером без связи не самое приятное времяпровождение, но Роуз попадает в ситуацию намного хуже. Странный и безобидный на первый взгляд пассажир, оказавшийся запертым с ней в кабине лифта, оказывается не тем, кем кажется. И скоро становится ясно одно - из лифта живым выйдет только один из них.

Страна: Великобритания
Студия: Stronghold
Продолжительность: 01:35:50
Перевод: Дублированный | Moygolos

Качество: WEB_DL 1080p
Видео: MPEG-4 AVC, 1920x1080, 6144 Kbit/s, 24.000 fps
Аудио: 48 kHz, AC3, 5.1, 640 Kbps | Дублированный | Moygolos | RUS |Сталкер / Stalker (2022) WEB-DL 1080p от селезень | D | Локализованная версия
Субтитры: Отсутствуют

Сталкер / Stalker (2022) WEB-DL 1080p от селезень | D | Локализованная версия

Авторизуйтесь для получения доступа к скачиванию

Нет аккаунта? Регистрация открыта и займёт меньше минуты

Вход Регистрация

General
Unique ID : 211601132887672323326659775759092956183 (0x9F30E553C4DB66F5A69AAC3F2D5E3C17)
Complete name : H:\VideoH\Stalker.2022.WEB-DL.1080p.seleZen.mkv
Format : Matroska
Format version : Version 4
File size : 4.50 GiB
Duration : 1 h 35 min
Overall bit rate mode : Constant
Overall bit rate : 6 723 kb/s
Frame rate : 24.000 FPS
Movie name : Stalker 2022 from seleZen
Encoded date : 2024-02-18 21:45:40 UTC
Writing application : mkvmerge v80.0 ('Roundabout') 64-bit
Writing library : libebml v1.4.4 + libmatroska v1.7.1

Video
ID : 1
Format : AVC
Format/Info : Advanced Video Codec
Format profile : Constrained Baseline@L4
Format settings : 2 Ref Frames
Format settings, CABAC : No
Format settings, Reference : 2 frames
Format settings, Slice coun : 7 slices per frame
Codec ID : V_MPEG4/ISO/AVC
Duration : 1 h 35 min
Bit rate mode : Constant
Bit rate : 6 144 kb/s
Width : 1 920 pixels
Height : 1 080 pixels
Display aspect ratio : 16:9
Frame rate mode : Constant
Frame rate : 24.000 FPS
Color space : YUV
Chroma subsampling : 4:2:0
Bit depth : 8 bits
Scan type : Progressive
Bits/(Pixel*Frame) : 0.123
Stream size : 4.07 GiB (90%)
Language : English
Default : Yes
Forced : No

Audio
ID : 2
Format : AC-3
Format/Info : Audio Coding 3
Commercial name : Dolby Digital
Codec ID : A_AC3
Duration : 1 h 35 min
Bit rate mode : Constant
Bit rate : 640 kb/s
Channel(s) : 6 channels
Channel layout : L R C LFE Ls Rs
Sampling rate : 48.0 kHz
Frame rate : 31.250 FPS (1536 SPF)
Compression mode : Lossy
Stream size : 439 MiB (10%)
Language : Russian
Service kind : Complete Main
Default : Yes
Forced : No

Другие фильмы
У данной публикации пока нет комментариев.
Будь первым, оставь своё мнение в комментариях!
Информация
Посетители, находящиеся в группе Гости, не могут оставлять комментарии к данной публикации.
Самый популярный релиз недели
Донаты
Мы в соц. сетях / RSS

Лучшие релизы месяца
Лучшие SD недели
Лучшие 720p недели
Лучшие 1080p недели
Лучшие 4K недели
Вы недавно смотрели
Реклама
Последние комментарии
...

Tony1984

Вчера, 14:36

...

bolonka123

19 апреля 2024 10:05

...

Sergunka

17 апреля 2024 23:31

...

-=DoMiNo=-

17 апреля 2024 13:52

...

bolonka123

17 апреля 2024 11:43

Реклама