+8

Звезда шерифа / Lone Star (1996) UHD BDRemux 2160p от селезень | 4K | HDR | Dolby Vision Profile 8 | P

Информация о фильме
Название: Звезда шерифа
Оригинальное название: Lone Star
Год выхода: 1996
Жанр: драма, детектив, вестерн
Режиссер: Джон Сейлз
В ролях: Крис Кристофферсон, Мэттью Макконахи, Крис Купер, Элизабет Пенья, Мириам Колон, Клифтон Джеймс, Рон Кэнада, Джо Мортон, Эдди Робинсон, Фрэнсис Макдорманд

О фильме: На юге Техаса, в приграничном районе, случайно находят останки человека и по звезде определяют, что это был шериф Чарли Уэйд. Сэм Дидз начинает расследование и выясняет, что одновременно с исчезновением Уэйда пропала крупная сумма денег и к этому мог иметь отношение его отец Бадди Дидз.

Возникают противоречивые версии событий, разработка которых приводит к неожиданным результатам.


Страна: США
Студия: Castle Rock Entertainment, Columbia Pictures Corporation, Rio Dulce
Продолжительность: 02:15:21
Перевод: Профессиональный многоголосый

Качество: BDRemux 2160p
Видео: 3840x2160 at 23.976 fps, MPEG-H HEVC HDR Video, 78000 kbps
Аудио #01: 48 kHz, AC3, 2.0, 192 Kbps | Профессиональный многоголосый | RUS |Звезда шерифа / Lone Star (1996) UHD BDRemux 2160p от селезень | 4K | HDR | Dolby Vision Profile 8 | P
Аудио #02: 48 kHz, DTS-HD MA, 2.0, 2039 Kbps | Оригинал | ENG |
Субтитры: Английские

Звезда шерифа / Lone Star (1996) UHD BDRemux 2160p от селезень | 4K | HDR | Dolby Vision Profile 8 | P

Авторизуйтесь для получения доступа к скачиванию

Нет аккаунта? Регистрация открыта и займёт меньше минуты

Вход Регистрация

General
Unique ID : 205130713978427587296332655196531619749 (0x9A52BD0B7B83A5F3F3C57DECA57477A5)
Complete name : H:\VideoH\Lone.Star.1996.BDREMUX.2160p.HDR.DVP8.seleZen.mkv
Format : Matroska
Format version : Version 4
File size : 75.9 GiB
Duration : 2 h 15 min
Overall bit rate mode : Variable
Overall bit rate : 80.3 Mb/s
Frame rate : 23.976 FPS
Movie name : Lone Star 1996 from seleZen
Encoded date : 2024-02-20 11:38:46 UTC
Writing application : mkvmerge v80.0 ('Roundabout') 64-bit
Writing library : libebml v1.4.4 + libmatroska v1.7.1

Video
ID : 1
ID in the original source m : 4117 (0x1015)
Format : HEVC
Format/Info : High Efficiency Video Coding
Format profile : Main [email protected]@High
HDR format : Dolby Vision, Version 1.0, dvhe.08.06, BL+RPU, Blu-ray compatible / SMPTE ST 2086, HDR10 compatible
Codec ID : V_MPEGH/ISO/HEVC
Duration : 2 h 15 min
Bit rate : 78.0 Mb/s
Width : 3 840 pixels
Height : 2 160 pixels
Display aspect ratio : 16:9
Frame rate mode : Constant
Frame rate : 23.976 (24000/1001) FPS
Color space : YUV
Chroma subsampling : 4:2:0 (Type 2)
Bit depth : 10 bits
Bits/(Pixel*Frame) : 0.392
Stream size : 73.8 GiB (97%)
Language : English
Default : No
Forced : No
Color range : Limited
Color primaries : BT.2020
Transfer characteristics : PQ
Matrix coefficients : BT.2020 non-constant
Mastering display color pri : BT.2020
Mastering display luminance : min: 0.0001 cd/m2, max: 1000 cd/m2
Original source medium : Blu-ray

Audio #1
ID : 2
Format : AC-3
Format/Info : Audio Coding 3
Commercial name : Dolby Digital
Codec ID : A_AC3
Duration : 2 h 15 min
Bit rate mode : Constant
Bit rate : 192 kb/s
Channel(s) : 2 channels
Channel layout : L R
Sampling rate : 48.0 kHz
Frame rate : 31.250 FPS (1536 SPF)
Compression mode : Lossy
Stream size : 186 MiB (0%)
Title : MVO
Language : Russian
Service kind : Complete Main
Default : Yes
Forced : No

Audio #2
ID : 3
Format : DTS XLL
Format/Info : Digital Theater Systems
Commercial name : DTS-HD Master Audio
Codec ID : A_DTS
Duration : 2 h 15 min
Bit rate mode : Variable
Bit rate : 2 039 kb/s
Channel(s) : 2 channels
Sampling rate : 48.0 kHz
Frame rate : 93.750 FPS (512 SPF)
Bit depth : 24 bits
Compression mode : Lossless
Stream size : 1.93 GiB (3%)
Title : Original
Language : English
Default : No
Forced : No

Text
ID : 4
Format : UTF-8
Codec ID : S_TEXT/UTF8
Codec ID/Info : UTF-8 Plain Text
Duration : 2 h 14 min
Bit rate : 67 b/s
Frame rate : 0.232 FPS
Count of elements : 1869
Stream size : 66.3 KiB (0%)
Title : SDH
Language : English
Default : No
Forced : No

Menu
00:00:00.000 : en:Глава 01
00:04:36.276 : en:Глава 02
00:13:34.564 : en:Глава 03
00:22:47.908 : en:Глава 04
00:30:06.471 : en:Глава 05
00:40:47.320 : en:Глава 06
00:50:05.461 : en:Глава 07
00:57:54.179 : en:Глава 08
01:04:36.873 : en:Глава 09
01:11:09.223 : en:Глава 10
01:19:31.642 : en:Глава 11
01:31:41.621 : en:Глава 12
01:40:54.715 : en:Глава 13
01:50:38.423 : en:Глава 14
01:59:27.327 : en:Глава 15
02:07:51.622 : en:Глава 16

Другие фильмы
У данной публикации пока нет комментариев.
Будь первым, оставь своё мнение в комментариях!
Информация
Посетители, находящиеся в группе Гости, не могут оставлять комментарии к данной публикации.
Самый популярный релиз недели
Донаты
Мы в соц. сетях / RSS

Лучшие релизы месяца
Лучшие SD недели
Лучшие 720p недели
Лучшие 1080p недели
Лучшие 4K недели
Вы недавно смотрели
Реклама
Последние комментарии
...

Tony1984

Вчера, 14:36

...

bolonka123

19 апреля 2024 10:05

...

Sergunka

17 апреля 2024 23:31

...

-=DoMiNo=-

17 апреля 2024 13:52

...

bolonka123

17 апреля 2024 11:43

Реклама