+7

Вонка / Wonka (2023) UHD BDRemux 2160p от селезень | 4K | HDR | Dolby Vision Profile 8 | D

Информация о фильме
Название: Вонка
Оригинальное название: Wonka
Год выхода: 2023
Жанр: мюзикл, фэнтези, комедия, приключения, семейный
Режиссер: Пол Кинг
В ролях: Тимоти Шаламе, Колин О'Брайэн, Кала Лэйн, Кигэн-Майкл Ки, Пэтерсон Джозеф, Мэтт Лукас, Мэтью Бэйнтон, Салли Хокинс, Роуэн Эткинсон, Оливия Колман

О фильме: Мечтая открыть магазин в городе, известном своим шоколадом, молодой и бедный Вилли Вонка обнаруживает, что индустрией управляет картель жадных шоколатье.

Страна: США, Великобритания, Канада
Студия: Heyday Films, Warner Bros.
Продолжительность: 01:56:16
Перевод: Дублированный | Bravo Records Georgia

Качество: BDRemux 2160p
Видео: 3840x2160 at 23.976 fps, MPEG-H HEVC HDR Video, 71500 kbps
Аудио #01: 48 kHz, AC3, 5.1, 384 Kbps | Дублированный | Bravo Records Georgia | RUS |Вонка / Wonka (2023) UHD BDRemux 2160p от селезень | 4K | HDR | Dolby Vision Profile 8 | D
Аудио #02: 48 kHz, TrueHD, 7.1, 3196 Kbps | Оригинал | ENG |
Аудио #03: 48 kHz, AC3, 5.1, 448 Kbps | Оригинал | ENG |
Субтитры: Русские, Английские

Вонка / Wonka (2023) UHD BDRemux 2160p от селезень | 4K | HDR | Dolby Vision Profile 8 | D

Авторизуйтесь для получения доступа к скачиванию

Нет аккаунта? Регистрация открыта и займёт меньше минуты

Вход Регистрация

General
Unique ID : 216040419790419227970541971091793220572 (0xA287DF11EC5438427719CD5C00A593DC)
Complete name : H:\VideoH\Wonka.2023.BDREMUX.2160p.HDR.DVP8.seleZen.mkv
Format : Matroska
Format version : Version 4
File size : 61.4 GiB
Duration : 1 h 56 min
Overall bit rate mode : Variable
Overall bit rate : 75.3 Mb/s
Frame rate : 23.976 FPS
Movie name : Wonka 2023 from seleZen
Encoded date : 2024-02-21 16:56:12 UTC
Writing application : mkvmerge v80.0 ('Roundabout') 64-bit
Writing library : libebml v1.4.4 + libmatroska v1.7.1

Video
ID : 1
ID in the original source m : 4117 (0x1015)
Format : HEVC
Format/Info : High Efficiency Video Coding
Format profile : Main [email protected]@High
HDR format : Dolby Vision, Version 1.0, dvhe.08.06, BL+RPU, Blu-ray compatible / SMPTE ST 2086, HDR10 compatible
Codec ID : V_MPEGH/ISO/HEVC
Duration : 1 h 56 min
Bit rate : 71.5 Mb/s
Width : 3 840 pixels
Height : 2 160 pixels
Display aspect ratio : 16:9
Frame rate mode : Constant
Frame rate : 23.976 (24000/1001) FPS
Color space : YUV
Chroma subsampling : 4:2:0 (Type 2)
Bit depth : 10 bits
Bits/(Pixel*Frame) : 0.359
Stream size : 58.1 GiB (95%)
Language : English
Default : No
Forced : No
Color range : Limited
Color primaries : BT.2020
Transfer characteristics : PQ
Matrix coefficients : BT.2020 non-constant
Mastering display color pri : Display P3
Mastering display luminance : min: 0.0001 cd/m2, max: 1000 cd/m2
Maximum Content Light Level : 446 cd/m2
Maximum Frame-Average Light : 106 cd/m2
Original source medium : Blu-ray

Audio #1
ID : 2
Format : AC-3
Format/Info : Audio Coding 3
Commercial name : Dolby Digital
Codec ID : A_AC3
Duration : 1 h 56 min
Bit rate mode : Constant
Bit rate : 384 kb/s
Channel(s) : 6 channels
Channel layout : L R C LFE Ls Rs
Sampling rate : 48.0 kHz
Frame rate : 31.250 FPS (1536 SPF)
Compression mode : Lossy
Stream size : 321 MiB (1%)
Title : Dub
Language : Russian
Service kind : Complete Main
Default : Yes
Forced : No

Audio #2
ID : 3
Format : MLP FBA 16-ch
Format/Info : Meridian Lossless Packing FBA with 16-channel presentation
Commercial name : Dolby TrueHD with Dolby Atmos
Codec ID : A_TRUEHD
Duration : 1 h 56 min
Bit rate mode : Variable
Bit rate : 3 196 kb/s
Maximum bit rate : 5 526 kb/s
Channel(s) : 8 channels
Channel layout : L R C LFE Ls Rs Lb Rb
Sampling rate : 48.0 kHz
Frame rate : 1 200.000 FPS (40 SPF)
Compression mode : Lossless
Stream size : 2.60 GiB (4%)
Title : Original
Language : English
Default : No
Forced : No
Number of dynamic objects : 11
Bed channel count : 1 channel
Bed channel configuration : LFE

Audio #3
ID : 4
Format : AC-3
Format/Info : Audio Coding 3
Commercial name : Dolby Digital
Codec ID : A_AC3
Duration : 1 h 56 min
Bit rate mode : Constant
Bit rate : 448 kb/s
Channel(s) : 6 channels
Channel layout : L R C LFE Ls Rs
Sampling rate : 48.0 kHz
Frame rate : 31.250 FPS (1536 SPF)
Compression mode : Lossy
Stream size : 373 MiB (1%)
Language : English
Service kind : Complete Main
Default : No
Forced : No

Text #1
ID : 5
Format : UTF-8
Codec ID : S_TEXT/UTF8
Codec ID/Info : UTF-8 Plain Text
Duration : 1 h 53 min
Bit rate : 0 b/s
Frame rate : 0.004 FPS
Count of elements : 29
Stream size : 738 Bytes (0%)
Title : Forced
Language : Russian
Default : Yes
Forced : No

Text #2
ID : 6
Format : UTF-8
Codec ID : S_TEXT/UTF8
Codec ID/Info : UTF-8 Plain Text
Duration : 1 h 54 min
Bit rate : 113 b/s
Frame rate : 0.318 FPS
Count of elements : 2190
Stream size : 95.0 KiB (0%)
Title : Full
Language : Russian
Default : No
Forced : No

Text #3
ID : 7
Format : UTF-8
Codec ID : S_TEXT/UTF8
Codec ID/Info : UTF-8 Plain Text
Duration : 1 h 54 min
Bit rate : 81 b/s
Frame rate : 0.342 FPS
Count of elements : 2348
Stream size : 68.8 KiB (0%)
Title : Full
Language : English
Default : No
Forced : No

Text #4
ID : 8
Format : UTF-8
Codec ID : S_TEXT/UTF8
Codec ID/Info : UTF-8 Plain Text
Duration : 1 h 54 min
Bit rate : 95 b/s
Frame rate : 0.378 FPS
Count of elements : 2602
Stream size : 80.5 KiB (0%)
Title : SDH
Language : English
Default : No
Forced : No

Menu
00:00:00.000 : en:Глава 01
00:06:58.001 : en:Глава 02
00:16:54.472 : en:Глава 03
00:23:57.227 : en:Глава 04
00:33:17.579 : en:Глава 05
00:41:15.515 : en:Глава 06
00:47:13.831 : en:Глава 07
00:53:37.089 : en:Глава 08
00:59:02.330 : en:Глава 09
01:07:27.418 : en:Глава 10
01:13:15.474 : en:Глава 11
01:18:04.972 : en:Глава 12
01:26:43.990 : en:Глава 13
01:36:28.199 : en:Глава 14
01:46:20.165 : en:Глава 15
01:50:28.288 : en:Глава 16

Другие фильмы
У данной публикации пока нет комментариев.
Будь первым, оставь своё мнение в комментариях!
Информация
Посетители, находящиеся в группе Гости, не могут оставлять комментарии к данной публикации.
Самый популярный релиз недели
Донаты
Мы в соц. сетях / RSS

Лучшие релизы месяца
Лучшие SD недели
Лучшие 720p недели
Лучшие 1080p недели
Лучшие 4K недели
Вы недавно смотрели
Реклама
Последние комментарии
...

Tony1984

Вчера, 14:36

...

bolonka123

19 апреля 2024 10:05

...

Sergunka

17 апреля 2024 23:31

...

-=DoMiNo=-

17 апреля 2024 13:52

...

bolonka123

17 апреля 2024 11:43

Реклама