+4

Командный пункт / Northspur (2022) WEB-DL 1080p от селезень | D

Информация о фильме
Название: Командный пункт
Оригинальное название: Northspur
Год выхода: 2022
Жанр: боевик, триллер, драма
Режиссер: Аарон Фалви
В ролях: Нелл Фишер, Майкл Херст, Джошуа МакКензи, Маршалл Напье, Делани Таброн, Кали Копае, Ник Кемплен, Джеймс Черчуорд, Питер Коутс, Рама Мэрроу

О фильме: После электромагнитного импульса, обрушившегося на Землю, люди остались без электричества. Через какое-то время человечество стало мишенью для неизвестного ранее патогена, выкосившего большую часть населения планеты. Те, кто уцелел, живут примитивной жизнью без электричества и технологий, но у всех есть оружие, потому что люди стали друг для друга врагами. Хуже всего в новом мире дело обстоит с лекарствами. Когда жена Келлана царапает ногу о машину, ситуация становится безвыходной. На поиски антибиотиков есть всего несколько дней. Келлан отправляется в путь и знакомится с угрюмым стариком, дом которого настойчиво осаждают другие выжившие.

Страна: Новая Зеландия
Студия: Northspur Films
Продолжительность: 01:40:22
Перевод: Дублированный (KION)

Качество: WEB-DL 1080p
Видео: MPEG-4 AVC, 1920x800, 8710 Kbit/s, 23.976 fps
Аудио #01: 48 kHz, AC3, 5.1, 640 Kbps | Дублированный (KION) | RUS |Командный пункт / Northspur (2022) WEB-DL 1080p от селезень | D
Аудио #02: 48 kHz, E-AC3, 5.1, 640 Kbps | Оригинал | ENG |
Субтитры: Английские

Командный пункт / Northspur (2022) WEB-DL 1080p от селезень | D

Авторизуйтесь для получения доступа к скачиванию

Нет аккаунта? Регистрация открыта и займёт меньше минуты

Вход Регистрация

General
Unique ID : 53995654428819287482783998850674638586 (0x289F2F4D4AA057025527B68E396EBEFA)
Complete name : H:\VideoH\Northspur.2022.WEB-DL.1080p.seleZen.mkv
Format : Matroska
Format version : Version 4
File size : 7.01 GiB
Duration : 1 h 40 min
Overall bit rate : 9 992 kb/s
Frame rate : 23.976 FPS
Movie name : Northspur 2022 from seleZen
Encoded date : 2024-02-22 00:35:38 UTC
Writing application : mkvmerge v80.0 ('Roundabout') 64-bit
Writing library : libebml v1.4.4 + libmatroska v1.7.1

Video
ID : 1
Format : AVC
Format/Info : Advanced Video Codec
Format profile : High@L4
Format settings : CABAC / 4 Ref Frames
Format settings, CABAC : Yes
Format settings, Reference : 4 frames
Codec ID : V_MPEG4/ISO/AVC
Duration : 1 h 40 min
Bit rate mode : Constant
Bit rate : 8 710 kb/s
Nominal bit rate : 10 000 kb/s
Width : 1 920 pixels
Height : 800 pixels
Display aspect ratio : 2.40:1
Frame rate mode : Constant
Frame rate : 23.976 (24000/1001) FPS
Color space : YUV
Chroma subsampling : 4:2:0
Bit depth : 8 bits
Scan type : Progressive
Bits/(Pixel*Frame) : 0.237
Stream size : 6.11 GiB (87%)
Language : English (NZ)
Default : Yes
Forced : No
Color range : Limited
Color primaries : BT.709
Transfer characteristics : BT.709
Matrix coefficients : BT.709

Audio #1
ID : 2
Format : AC-3
Format/Info : Audio Coding 3
Commercial name : Dolby Digital
Codec ID : A_AC3
Duration : 1 h 40 min
Bit rate mode : Constant
Bit rate : 640 kb/s
Channel(s) : 6 channels
Channel layout : L R C LFE Ls Rs
Sampling rate : 48.0 kHz
Frame rate : 31.250 FPS (1536 SPF)
Compression mode : Lossy
Stream size : 459 MiB (6%)
Title : Dub
Language : Russian
Service kind : Complete Main
Default : Yes
Forced : No

Audio #2
ID : 3
Format : E-AC-3
Format/Info : Enhanced AC-3
Commercial name : Dolby Digital Plus
Codec ID : A_EAC3
Duration : 1 h 40 min
Bit rate mode : Constant
Bit rate : 640 kb/s
Channel(s) : 6 channels
Channel layout : L R C LFE Ls Rs
Sampling rate : 48.0 kHz
Frame rate : 31.250 FPS (1536 SPF)
Compression mode : Lossy
Stream size : 460 MiB (6%)
Title : Original
Language : English
Service kind : Complete Main
Default : No
Forced : No

Text
ID : 4
Format : UTF-8
Codec ID : S_TEXT/UTF8
Codec ID/Info : UTF-8 Plain Text
Duration : 1 h 37 min
Bit rate : 38 b/s
Frame rate : 0.201 FPS
Count of elements : 1172
Stream size : 27.8 KiB (0%)
Language : English (NZ)
Default : No
Forced : No

Другие фильмы
У данной публикации пока нет комментариев.
Будь первым, оставь своё мнение в комментариях!
Информация
Посетители, находящиеся в группе Гости, не могут оставлять комментарии к данной публикации.
Самый популярный релиз недели
Донаты
Мы в соц. сетях / RSS

Лучшие релизы месяца
Лучшие SD недели
Лучшие 720p недели
Лучшие 1080p недели
Лучшие 4K недели
Вы недавно смотрели
Реклама
Последние комментарии
...

Tony1984

Вчера, 14:36

...

bolonka123

19 апреля 2024 10:05

...

Sergunka

17 апреля 2024 23:31

...

-=DoMiNo=-

17 апреля 2024 13:52

...

bolonka123

17 апреля 2024 11:43

Реклама