+3

Ледяной страх / Cold Meat (2023) WEB-DL 1080p от селезень | D

Информация о фильме
Название: Ледяной страх
Оригинальное название: Cold Meat
Год выхода: 2023
Жанр: триллер
Режиссер: Себастьен Друэн
В ролях: Ян Туаль, Уилльям Куклис, Райли Банцер, Аллен Лич, Нина Бергман, Джеймс Бартон, Джил Ботельо, Кэт Фуллертон, Сидни Хендрикс

О фильме: Несколько часов назад она подавала вишневые пироги в придорожном кафе. А он, такой ухоженный и галантный, был её последним клиентом. Теперь они вдвоем в машине посреди неизвестности. Колёса увязли в снегу. За окном бушует ледяная буря, и ревёт нечто ужасное. Слишком большое даже для медведя.

Страна: Великобритания, Канада
Студия: Featuristic Films, Trilight Entertainment
Продолжительность: 01:28:43
Перевод: Дублированный | Pride Production

Качество: WEB-DL 1080p
Видео: MPEG-4 AVC, 1920x876, 4939 Kbit/s, 24.000 fps
Аудио #01: 48 kHz, AC3, 5.1, 448 Kbps | Дублированный | Pride Production | RUS |Ледяной страх / Cold Meat (2023) WEB-DL 1080p от селезень | D
Аудио #02: 48 kHz, E-AC3, 5.1, 448 Kbps | Оригинал | ENG |
Субтитры: Русские (Full)

Ледяной страх / Cold Meat (2023) WEB-DL 1080p от селезень | D

Авторизуйтесь для получения доступа к скачиванию

Нет аккаунта? Регистрация открыта и займёт меньше минуты

Вход Регистрация

General
Unique ID : 41290763673312197989790919433563211278 (0x1F104FD35668AFE114200C25A9F1060E)
Complete name : H:\VideoH\Cold.Meat.2023.WEB-DL.1080p.seleZen.mkv
Format : Matroska
Format version : Version 4
File size : 3.62 GiB
Duration : 1 h 28 min
Overall bit rate : 5 838 kb/s
Frame rate : 24.000 FPS
Movie name : Cold Meat 2023 from seleZen
Encoded date : 2024-02-22 23:41:54 UTC
Writing application : mkvmerge v80.0 ('Roundabout') 64-bit
Writing library : libebml v1.4.4 + libmatroska v1.7.1

Video
ID : 1
Format : AVC
Format/Info : Advanced Video Codec
Format profile : High@L4
Format settings : CABAC / 3 Ref Frames
Format settings, CABAC : Yes
Format settings, Reference : 3 frames
Codec ID : V_MPEG4/ISO/AVC
Duration : 1 h 28 min
Bit rate : 4 939 kb/s
Width : 1 920 pixels
Height : 876 pixels
Display aspect ratio : 2.2:1
Frame rate mode : Constant
Frame rate : 24.000 FPS
Color space : YUV
Chroma subsampling : 4:2:0
Bit depth : 8 bits
Scan type : Progressive
Bits/(Pixel*Frame) : 0.122
Stream size : 3.06 GiB (85%)
Language : English
Default : Yes
Forced : No
Color range : Limited
Color primaries : BT.709
Transfer characteristics : BT.709
Matrix coefficients : BT.709

Audio #1
ID : 2
Format : AC-3
Format/Info : Audio Coding 3
Commercial name : Dolby Digital
Codec ID : A_AC3
Duration : 1 h 28 min
Bit rate mode : Constant
Bit rate : 448 kb/s
Channel(s) : 6 channels
Channel layout : L R C LFE Ls Rs
Sampling rate : 48.0 kHz
Frame rate : 31.250 FPS (1536 SPF)
Compression mode : Lossy
Stream size : 284 MiB (8%)
Title : Dub
Language : Russian
Service kind : Complete Main
Default : Yes
Forced : No

Audio #2
ID : 3
Format : E-AC-3
Format/Info : Enhanced AC-3
Commercial name : Dolby Digital Plus
Codec ID : A_EAC3
Duration : 1 h 28 min
Bit rate mode : Constant
Bit rate : 448 kb/s
Channel(s) : 6 channels
Channel layout : L R C LFE Ls Rs
Sampling rate : 48.0 kHz
Frame rate : 31.250 FPS (1536 SPF)
Bit depth : 32 bits
Compression mode : Lossy
Stream size : 284 MiB (8%)
Title : Original
Language : English
Service kind : Complete Main
Default : No
Forced : No

Text
ID : 4
Format : UTF-8
Codec ID : S_TEXT/UTF8
Codec ID/Info : UTF-8 Plain Text
Duration : 1 h 24 min
Bit rate : 62 b/s
Frame rate : 0.152 FPS
Count of elements : 773
Stream size : 39.0 KiB (0%)
Title : Full
Language : Russian
Default : No
Forced : No

Другие фильмы
У данной публикации пока нет комментариев.
Будь первым, оставь своё мнение в комментариях!
Информация
Посетители, находящиеся в группе Гости, не могут оставлять комментарии к данной публикации.
Самый популярный релиз недели
Донаты
Мы в соц. сетях / RSS

Лучшие релизы месяца
Лучшие SD недели
Лучшие 720p недели
Лучшие 1080p недели
Лучшие 4K недели
Вы недавно смотрели
Реклама
Последние комментарии
...

Tony1984

Вчера, 14:36

...

bolonka123

19 апреля 2024 10:05

...

Sergunka

17 апреля 2024 23:31

...

-=DoMiNo=-

17 апреля 2024 13:52

...

bolonka123

17 апреля 2024 11:43

Реклама