+3

Затерянные в Рио Браво / Taken from Rio Bravo (2023) WEB-DL 1080p от селезень | D | Локализованная версия

Информация о фильме
Название: Затерянные в Рио Браво
Оригинальное название: Taken from Rio Bravo
Год выхода: 2023
Жанр: боевик, вестерн
Режиссер: Джо Корнет
В ролях: Александр Невский, Джо Корнет, Синтия Ротрок, Маттиас Хьюз, Дон Уилсон, Ирина Антоненко, Paul Bloom, Джон Мак, Джеймс Чок, Мария Пэрис

О фильме: 1874 год, Восточный Техас. Двое друзей преследуют группу садистов-торговцев людьми, которые похитили пять женщин. Вместе с индейским разведчиком они должны как можно быстрее найти и освободить женщин, пока торговцы не продали их в качестве секс-рабынь на мексиканской границе.

Страна: США
Студия: Hollywood Storm
Продолжительность: 01:20:06
Перевод: Дублированный | Кинопоиск HD

Качество: WEB-DL 1080p
Видео: MPEG-4 AVC, 1920x816, 5374 Kbit/s, 24.000 fps
Аудио #01: 48 kHz, E-AC3, 5.1, 256 Kbps | Дублированный | Кинопоиск HD | RUS |Затерянные в Рио Браво / Taken from Rio Bravo (2023) WEB-DL 1080p от селезень | D | Локализованная версия
Аудио #02: 48 kHz, AC3, 5.1, 256 Kbps | Дублированный | Кинопоиск HD | RUS |
Субтитры: Отсутствуют

Затерянные в Рио Браво / Taken from Rio Bravo (2023) WEB-DL 1080p от селезень | D | Локализованная версия

Авторизуйтесь для получения доступа к скачиванию

Нет аккаунта? Регистрация открыта и займёт меньше минуты

Вход Регистрация

General
Unique ID : 34484368535945406741978403259030101825 (0x19F172A2DE2BACFA8FAE22A34CC6DF41)
Complete name : H:\VideoH\Taken.from.Rio.Bravo.2023.WEB-DL.1080p.seleZen.mkv
Format : Matroska
Format version : Version 4
File size : 3.29 GiB
Duration : 1 h 20 min
Overall bit rate : 5 888 kb/s
Frame rate : 24.000 FPS
Movie name : Taken from Rio Bravo 2023 from seleZen
Encoded date : 2024-02-23 00:05:06 UTC
Writing application : mkvmerge v80.0 ('Roundabout') 64-bit
Writing library : libebml v1.4.4 + libmatroska v1.7.1

Video
ID : 1
Format : AVC
Format/Info : Advanced Video Codec
Format profile : Progressive High@L4
Format settings : CABAC / 5 Ref Frames
Format settings, CABAC : Yes
Format settings, Reference : 5 frames
Codec ID : V_MPEG4/ISO/AVC
Duration : 1 h 20 min
Bit rate : 5 374 kb/s
Nominal bit rate : 6 000 kb/s
Width : 1 920 pixels
Height : 816 pixels
Display aspect ratio : 2.35:1
Frame rate mode : Constant
Frame rate : 24.000 FPS
Color space : YUV
Chroma subsampling : 4:2:0
Bit depth : 8 bits
Scan type : Progressive
Bits/(Pixel*Frame) : 0.143
Stream size : 3.01 GiB (91%)
Writing library : x264 core 157
Encoding settings : cabac=1 / ref=5 / deblock=1:0:0 / analyse=0x3:0x133 / me=umh / subme=10 / psy=1 / psy_rd=1.00:0.00 / mixed_ref=1 / me_range=24 / chroma_me=1 / trellis=2 / 8x8dct=1 / cqm=0 / deadzone=21,11 / fast_pskip=1 / chroma_qp_offset=-2 / threads=25 / lookahead_threads=4 / sliced_threads=0 / nr=0 / decimate=1 / interlaced=0 / bluray_compat=0 / stitchable=1 / constrained_intra=0 / bframes=8 / b_pyramid=2 / b_adapt=2 / b_bias=0 / direct=3 / weightb=1 / open_gop=0 / weightp=2 / keyint=250 / keyint_min=24 / scenecut=40 / intra_refresh=0 / rc_lookahead=60 / rc=2pass / mbtree=1 / bitrate=6000 / ratetol=1.0 / qcomp=0.60 / qpmin=0 / qpmax=69 / qpstep=4 / cplxblur=20.0 / qblur=0.5 / vbv_maxrate=6600 / vbv_bufsize=12000 / nal_hrd=none / filler=0 / ip_ratio=1.40 / aq=1:1.00
Language : English
Default : Yes
Forced : No

Audio #1
ID : 2
Format : AC-3
Format/Info : Audio Coding 3
Commercial name : Dolby Digital
Codec ID : A_AC3
Duration : 1 h 20 min
Bit rate mode : Constant
Bit rate : 256 kb/s
Channel(s) : 6 channels
Channel layout : L R C LFE Ls Rs
Sampling rate : 48.0 kHz
Frame rate : 31.250 FPS (1536 SPF)
Compression mode : Lossy
Stream size : 147 MiB (4%)
Title : Вги
Language : Russian
Service kind : Complete Main
Default : Yes
Forced : No

Audio #2
ID : 3
Format : E-AC-3
Format/Info : Enhanced AC-3
Commercial name : Dolby Digital Plus
Codec ID : A_EAC3
Duration : 1 h 20 min
Bit rate mode : Constant
Bit rate : 256 kb/s
Channel(s) : 6 channels
Channel layout : L R C LFE Ls Rs
Sampling rate : 48.0 kHz
Frame rate : 31.250 FPS (1536 SPF)
Bit depth : 32 bits
Compression mode : Lossy
Stream size : 147 MiB (4%)
Title : Dub
Language : Russian
Service kind : Complete Main
Default : No
Forced : No

Другие фильмы
Комментарии:

...
korelov 23 февраля 2024 14:35
-1

уот так уот сюрпрайз , абсолютли амейзинг муви , 11 из 10

Информация
Посетители, находящиеся в группе Гости, не могут оставлять комментарии к данной публикации.
Самый популярный релиз недели
Донаты
Мы в соц. сетях / RSS

Лучшие релизы месяца
Лучшие SD недели
Лучшие 720p недели
Лучшие 1080p недели
Лучшие 4K недели
Вы недавно смотрели
Реклама
Последние комментарии
...

Tony1984

Вчера, 14:36

...

bolonka123

19 апреля 2024 10:05

...

Sergunka

17 апреля 2024 23:31

...

-=DoMiNo=-

17 апреля 2024 13:52

...

bolonka123

17 апреля 2024 11:43

Реклама