+14

Карающая длань / Red Right Hand (2024) BDRip-AVC от DoMiNo & селезень | D

Информация о фильме
Название: Карающая длань
Оригинальное название: Red Right Hand
Год выхода: 2024
Жанр: боевик, триллер
Режиссер: Эшом Нелмс, Иэн Нелмс
В ролях: Орландо Блум, Энди Макдауэлл, Гаррет Диллахант, Брайан Джерати, Джеймс Лэфферти, Скотт Хейз, Джереми Рэчфорд, Александра Парк, Николас Логан, Мо, Дэниэл Дэвид Стюарт, Кеннет Миллер, Харрисон Стоун, Сонни Бернетт

О фильме:
Кэш живет скромной и мирной жизнью, помогает мужу покойной сестры воспитывать племянницу Саванну и управляться с фермой в небольшом городишке в Аппалачах. Но когда Кошка, глава местной банды и садистка, начинает угрожать его семье, Кэш понимает, что готов на все ради их защиты. И чем дольше длится противостояние, затягивая Кэша в водоворот насилия, тем сильнее стирается граница между добром и злом.

Страна: США
Студия: Asbury Park Productions, Studio 507, Sweet Tomato Films, Traction
Продолжительность: 01:51:52
Перевод: Профессиональный (дублированный) | Мосфильм-Мастер (Кинопоиск HD)
Субтитры: Русские (Forced, Full), Английские (Full, SDH)

Файл
Формат: Matroska
Качество: BDRip-AVC [Исх.Red.Right.Hand.2024.MULTi.COMPLETE.BLURAY-MONUMENT]
Видео: 1024x426 at 23.976 fps, [email protected], ~2461 kbps
Аудио: AC3, 6 ch, ~448 kbps - | Русский | Карающая длань / Red Right Hand (2024) BDRip-AVC от DoMiNo & селезень | D
Формат субтитров: softsub (SRT)

Авторизуйтесь для получения доступа к скачиванию

Нет аккаунта? Регистрация открыта и займёт меньше минуты

Вход Регистрация

General
Unique ID : 66111314310019580911742320163766547491 (0x31BC937407FFBDB9217AEA0AF9463423)
Complete name : S:Red.Right.Hand.2024.DUB.BDRip.x264.seleZen.mkv
Format : Matroska
Format version : Version 4
File size : 2.27 GiB
Duration : 1 h 51 min
Overall bit rate : 2 910 kb/s
Frame rate : 23.976 FPS
Movie name : Red.Right.Hand.2024.DUB.BDRip.x264.seleZen
Encoded date : 2024-04-09 18:41:22 UTC
Writing application : mkvmerge v83.0 ('Circle Of Friends') 64-bit
Writing library : libebml v1.4.5 + libmatroska v1.7.1
Cover : Yes
Attachments : cover.jpg / small_cover.jpg

Video
ID : 1
Format : AVC
Format/Info : Advanced Video Codec
Format profile : [email protected]
Format settings : CABAC / 14 Ref Frames
Format settings, CABAC : Yes
Format settings, Reference : 14 frames
Codec ID : V_MPEG4/ISO/AVC
Duration : 1 h 51 min
Bit rate : 2 461 kb/s
Width : 1 024 pixels
Height : 426 pixels
Display aspect ratio : 2.40:1
Frame rate mode : Constant
Frame rate : 23.976 (24000/1001) FPS
Color space : YUV
Chroma subsampling : 4:2:0
Bit depth : 8 bits
Scan type : Progressive
Bits/(Pixel*Frame) : 0.235
Stream size : 1.92 GiB (85%)
Title : -=DoMiNo=-
Writing library : x264 core 164 r3190 -DoMiNo
Encoding settings : cabac=1 / ref=14 / deblock=1:-2:-2 / analyse=0x3:0x133 / me=umh / subme=10 / psy=1 / psy_rd=1.05:0.04 / mixed_ref=1 / me_range=32 / chroma_me=1 / trellis=2 / 8x8dct=1 / cqm=0 / deadzone=21,11 / fast_pskip=0 / chroma_qp_offset=-3 / threads=13 / lookahead_threads=3 / sliced_threads=0 / nr=0 / decimate=0 / interlaced=0 / bluray_compat=0 / constrained_intra=0 / bframes=16 / b_pyramid=2 / b_adapt=2 / b_bias=0 / direct=1 / weightb=1 / open_gop=0 / weightp=2 / keyint=240 / keyint_min=23 / scenecut=40 / intra_refresh=0 / rc_lookahead=60 / rc=crf / mbtree=0 / crf=18.0 / qcomp=0.60 / qpmin=0 / qpmax=69 / qpstep=4 / vbv_maxrate=50000 / vbv_bufsize=62500 / crf_max=0.0 / nal_hrd=none / filler=0 / ip_ratio=1.40 / pb_ratio=1.30 / aq=3:0.80
Language : English
Default : Yes
Forced : No
Color range : Limited
Color primaries : BT.709
Transfer characteristics : BT.709
Matrix coefficients : BT.709

Audio
ID : 2
Format : AC-3
Format/Info : Audio Coding 3
Commercial name : Dolby Digital
Codec ID : A_AC3
Duration : 1 h 51 min
Bit rate mode : Constant
Bit rate : 448 kb/s
Channel(s) : 6 channels
Channel layout : L R C LFE Ls Rs
Sampling rate : 48.0 kHz
Frame rate : 31.250 FPS (1536 SPF)
Compression mode : Lossy
Stream size : 358 MiB (15%)
Title : Dub
Language : Russian
Service kind : Complete Main
Default : Yes
Forced : No

Text #1
ID : 3
Format : UTF-8
Codec ID : S_TEXT/UTF8
Codec ID/Info : UTF-8 Plain Text
Duration : 1 h 47 min
Bit rate : 3 b/s
Frame rate : 0.007 FPS
Count of elements : 42
Stream size : 2.51 KiB (0%)
Title : Forced
Language : Russian
Default : No
Forced : No

Text #2
ID : 4
Format : UTF-8
Codec ID : S_TEXT/UTF8
Codec ID/Info : UTF-8 Plain Text
Duration : 1 h 47 min
Bit rate : 78 b/s
Frame rate : 0.234 FPS
Count of elements : 1505
Stream size : 61.6 KiB (0%)
Title : Full
Language : Russian
Default : No
Forced : No

Text #3
ID : 5
Format : UTF-8
Codec ID : S_TEXT/UTF8
Codec ID/Info : UTF-8 Plain Text
Duration : 1 h 50 min
Bit rate : 56 b/s
Frame rate : 0.257 FPS
Count of elements : 1707
Stream size : 45.5 KiB (0%)
Title : Full
Language : English
Default : No
Forced : No

Text #4
ID : 6
Format : UTF-8
Codec ID : S_TEXT/UTF8
Codec ID/Info : UTF-8 Plain Text
Duration : 1 h 51 min
Bit rate : 59 b/s
Frame rate : 0.265 FPS
Count of elements : 1771
Stream size : 48.8 KiB (0%)
Title : SDH
Language : English
Default : No
Forced : No

Menu
00:00:00.000 : en:Chapter 01
00:10:28.628 : en:Chapter 02
00:23:40.794 : en:Chapter 03
00:33:49.110 : en:Chapter 04
00:44:08.271 : en:Chapter 05
00:56:17.416 : en:Chapter 06
01:07:51.067 : en:Chapter 07
01:19:07.326 : en:Chapter 08
01:31:15.553 : en:Chapter 09
01:45:46.757 : en:Chapter 10

Другие фильмы
У данной публикации пока нет комментариев.
Будь первым, оставь своё мнение в комментариях!
Информация
Посетители, находящиеся в группе Гости, не могут оставлять комментарии к данной публикации.
Самый популярный релиз недели
Донаты
Мы в соц. сетях / RSS

Лучшие релизы месяца
Лучшие SD недели
Лучшие 720p недели
Лучшие 1080p недели
Лучшие 4K недели
Вы недавно смотрели
Реклама
Последние комментарии
...

rmzshka

15 мая 2024 13:43

...

Andrey_Vladimirovich

13 мая 2024 18:12

...

Robot

13 мая 2024 16:53

...

rmzshka

13 мая 2024 16:21

...

supermehanik

13 мая 2024 02:03

Реклама