+6

Выжившая / Dangerous Waters (2023) BDRip 1080p от селезень | D

Информация о фильме
Название: Выжившая
Оригинальное название: Dangerous Waters
Год выхода: 2023
Жанр: триллер
Режиссер: Джон Барр
В ролях: Одейя Раш, Эрик Дэйн, Саффрон Берроуз, Рэй Лиотта, Рой Эганаян, Терренс Жюльен, Сала Бейкер, Алезйа Гарсия, Омид Задер, Трентон Ростедт

О фильме: Кем на самом деле является Дерек - настоящая загадка для Альмы и ее дочери Роуз. Втроем они отправляются на приятную прогулку под парусами, но на них нападают неизвестные. В открытом море вдали от цивилизации рассчитывать остается только на собственные силы. Теперь перед юной Роуз встает выбор: спасаться от голодных акул, вооруженных убийц и разбушевавшейся стихии или же остановиться и дать бой своим страхам.

Страна: США
Студия: Capstone Group, Rio Luna Films, Signature Films
Продолжительность: 01:41:04
Перевод: Дублированный | Мосфильм-Мастер

Качество: BDRip 1080p
Видео: MPEG-4 AVC, 1920x960, 10000 Kbit/s, 23.976 fps
Аудио #01: 48 kHz, AC3, 5.1, 384 Kbps | Дублированный | Мосфильм-Мастер | RUS |Выжившая / Dangerous Waters (2023) BDRip 1080p от селезень | D
Аудио #02: 48 kHz, E-AC3, 5.1, 384 Kbps | Дублированный | Мосфильм-Мастер | RUS |
Аудио #03: 48 kHz, AC3, 5.1, 640 Kbps | Оригинал | ENG |
Субтитры: Английские

Выжившая / Dangerous Waters (2023) BDRip 1080p от селезень | D

Авторизуйтесь для получения доступа к скачиванию

Нет аккаунта? Регистрация открыта и займёт меньше минуты

Вход Регистрация

General
Unique ID : 243502278846620167967249695226531640176 (0xB730D541D4456C7C00A48C23F0A37370)
Complete name : H:\VideoH\Dangerous.Waters.2023.BDRip.1080p.seleZen.mkv
Format : Matroska
Format version : Version 4
File size : 8.05 GiB
Duration : 1 h 41 min
Overall bit rate : 11.4 Mb/s
Frame rate : 23.976 FPS
Movie name : Dangerous Waters (2023) from seleZen
Encoded date : 2024-04-16 08:45:43 UTC
Writing application : mkvmerge v80.0 ('Roundabout') 64-bit
Writing library : libebml v1.4.4 + libmatroska v1.7.1

Video
ID : 1
Format : AVC
Format/Info : Advanced Video Codec
Format profile : [email protected]
Format settings : CABAC / 4 Ref Frames
Format settings, CABAC : Yes
Format settings, Reference : 4 frames
Codec ID : V_MPEG4/ISO/AVC
Duration : 1 h 41 min
Bit rate : 10 000 kb/s
Width : 1 920 pixels
Height : 960 pixels
Display aspect ratio : 2.000
Frame rate mode : Constant
Frame rate : 23.976 (24000/1001) FPS
Color space : YUV
Chroma subsampling : 4:2:0
Bit depth : 8 bits
Scan type : Progressive
Bits/(Pixel*Frame) : 0.226
Stream size : 7.05 GiB (88%)
Writing library : x264 core 164 r3164 seleZen
Encoding settings : cabac=1 / ref=4 / deblock=1:-2:-2 / analyse=0x3:0x133 / me=umh / subme=11 / psy=1 / psy_rd=1.01:0.03 / mixed_ref=1 / me_range=48 / chroma_me=1 / trellis=2 / 8x8dct=1 / cqm=0 / deadzone=21,11 / fast_pskip=0 / chroma_qp_offset=-3 / threads=30 / lookahead_threads=7 / sliced_threads=0 / nr=0 / decimate=0 / interlaced=0 / bluray_compat=0 / constrained_intra=0 / bframes=10 / b_pyramid=2 / b_adapt=2 / b_bias=0 / direct=3 / weightb=1 / open_gop=0 / weightp=2 / keyint=240 / keyint_min=23 / scenecut=40 / intra_refresh=0 / rc_lookahead=60 / rc=2pass / mbtree=0 / bitrate=10000 / ratetol=1.0 / qcomp=0.60 / qpmin=0 / qpmax=51 / qpstep=4 / cplxblur=20.0 / qblur=0.5 / vbv_maxrate=50000 / vbv_bufsize=62500 / nal_hrd=none / filler=0 / ip_ratio=1.40 / pb_ratio=1.30 / aq=3:0.80
Language : English
Default : Yes
Forced : No

Audio #1
ID : 2
Format : AC-3
Format/Info : Audio Coding 3
Commercial name : Dolby Digital
Codec ID : A_AC3
Duration : 1 h 41 min
Bit rate mode : Constant
Bit rate : 384 kb/s
Channel(s) : 6 channels
Channel layout : L R C LFE Ls Rs
Sampling rate : 48.0 kHz
Frame rate : 31.250 FPS (1536 SPF)
Compression mode : Lossy
Stream size : 278 MiB (3%)
Title : Dub
Language : Russian
Service kind : Complete Main
Default : Yes
Forced : No

Audio #2
ID : 3
Format : E-AC-3
Format/Info : Enhanced AC-3
Commercial name : Dolby Digital Plus
Codec ID : A_EAC3
Duration : 1 h 41 min
Bit rate mode : Constant
Bit rate : 384 kb/s
Channel(s) : 6 channels
Channel layout : L R C LFE Ls Rs
Sampling rate : 48.0 kHz
Frame rate : 31.250 FPS (1536 SPF)
Compression mode : Lossy
Stream size : 278 MiB (3%)
Title : Dub
Language : Russian
Service kind : Complete Main
Default : No
Forced : No

Audio #3
ID : 4
Format : AC-3
Format/Info : Audio Coding 3
Commercial name : Dolby Digital
Codec ID : A_AC3
Duration : 1 h 41 min
Bit rate mode : Constant
Bit rate : 640 kb/s
Channel(s) : 6 channels
Channel layout : L R C LFE Ls Rs
Sampling rate : 48.0 kHz
Frame rate : 31.250 FPS (1536 SPF)
Compression mode : Lossy
Stream size : 463 MiB (6%)
Title : Original
Language : English
Service kind : Complete Main
Default : No
Forced : No

Text #1
ID : 5
Format : UTF-8
Codec ID : S_TEXT/UTF8
Codec ID/Info : UTF-8 Plain Text
Duration : 1 h 39 min
Bit rate : 33 b/s
Frame rate : 0.148 FPS
Count of elements : 882
Stream size : 24.1 KiB (0%)
Title : Full
Language : English (US)
Default : No
Forced : No

Text #2
ID : 6
Format : UTF-8
Codec ID : S_TEXT/UTF8
Codec ID/Info : UTF-8 Plain Text
Duration : 1 h 39 min
Bit rate : 42 b/s
Frame rate : 0.213 FPS
Count of elements : 1277
Stream size : 31.3 KiB (0%)
Title : SDH
Language : English (US)
Default : No
Forced : No

Menu
00:00:00.000 : en:Chapter 1
00:08:55.618 : en:Chapter 2
00:20:52.042 : en:Chapter 3
00:28:57.986 : en:Chapter 4
00:41:43.001 : en:Chapter 5
00:50:02.958 : en:Chapter 6
01:00:52.023 : en:Chapter 7
01:09:37.757 : en:Chapter 8
01:21:55.994 : en:Chapter 9
01:27:54.936 : en:Chapter 10

Другие фильмы
У данной публикации пока нет комментариев.
Будь первым, оставь своё мнение в комментариях!
Информация
Посетители, находящиеся в группе Гости, не могут оставлять комментарии к данной публикации.
Самый популярный релиз недели
Донаты
Мы в соц. сетях / RSS

Лучшие релизы месяца
Лучшие SD недели
Лучшие 720p недели
Лучшие 1080p недели
Лучшие 4K недели
Вы недавно смотрели
Реклама
Последние комментарии
...

Tony1984

Вчера, 14:36

...

bolonka123

19 апреля 2024 10:05

...

Sergunka

17 апреля 2024 23:31

...

-=DoMiNo=-

17 апреля 2024 13:52

...

bolonka123

17 апреля 2024 11:43

Реклама