+17

Дева и дракон / Damsel (2024) WEB-DLRip 720p от DoMiNo & селезень | D, P, P2

Информация о фильме
Название: Дева и дракон
Оригинальное название: Damsel
Год выпуска: 2024
Жанр: фэнтези, боевик, приключения
Режиссер: Хуан Карлос Фреснадильо / Juan Carlos Fresnadillo
В ролях: Милли Бобби Браун, Ник Робинсон, Рэй Уинстон, Робин Райт, Анджела Бассетт, Шохре Агдашлу, Элману Саншу, Брук Картер, Улли Аккерман, Саиф Мохсен, Николь Джозеф, Мило Твоми, Патрис Найамбана, Эзра Кан, Мэтт Слэк

О фильме:
Принцессу Элоди из страдающей от неурожаев страны выдают за принца процветающего королевства. Девушка рада спасти свой народ от голода, и жених ей кажется вполне симпатичным, но она даже не подозревает, что ей уготовано место не в спальне принца в качестве законной супруги, а в пасти дракона в качестве ритуальной жертвы.

Выпущено: США / PCMA Productions, Roth/Kirschenbaum Films
Продолжительность: 01:49:33
Перевод 1: Дублированный (неофициальный) | HDRezka Studio
Перевод 2: Профессиональный (многоголосый, закадровый) | Red Head Sound
Перевод 3: Профессиональный (многоголосый, закадровый) | Jaskier
Перевод 4: Профессиональный (многоголосый, закадровый) | TVShows
Перевод 5: Профессиональный (многоголосый, закадровый) | LostFilm
Перевод 6: Профессиональный (двухголосый, закадровый) | ViruseProject
Субтитры: Русские (Forced, Full), английские

Файл
Формат: Matroska
Качество: WEB-DLRip 720p
Видео: 1280x534 at 24.000 fps, [email protected], ~2798 kbps
Аудио 1: AC3, 2 ch, ~192 kbps - | Русский | Дева и дракон / Damsel (2024) WEB-DLRip 720p от DoMiNo & селезень | D, P, P2 | HDRezka Studio
Аудио 2: AC3, 2 ch, ~192 kbps - | Русский | | Red Head Sound
Аудио 3: AC3, 6 ch, ~448 kbps - | Русский | | Jaskier
Аудио 4: AC3, 6 ch, ~448 kbps - | Русский | | TVShows
Аудио 5: AC3, 6 ch, ~448 kbps - | Русский | | LostFilm
Аудио 6: AC3, 6 ch, ~640 kbps - | Русский | | ViruseProject
Аудио 7: AC3, 6 ch, ~448 kbps - | Английский | | Original
Формат субтитров: softsub (SRT)

Авторизуйтесь для получения доступа к скачиванию

Нет аккаунта? Регистрация открыта и займёт меньше минуты

Вход Регистрация

x264 [info]: frame I:1272 Avg QP:15.55 size: 84980
x264 [info]: frame P:31915 Avg QP:17.11 size: 33379
x264 [info]: frame B:124581 Avg QP:18.87 size: 9038

General
Unique ID : 124514810409507936883323412454473396086 (0x5DACAE20D95CE1C6AD75DFF94ABEEF76)
Complete name : S:Damsel.2024.D.P.P2.WEB-DLRip.720p.x264.seleZen.mkv
Format : Matroska
Format version : Version 4
File size : 4.30 GiB
Duration : 1 h 49 min
Overall bit rate : 5 617 kb/s
Frame rate : 24.000 FPS
Movie name : Damsel.2024.D.P.P2.WEB-DLRip.720p.x264.seleZen
Encoded date : 2024-03-31 13:40:18 UTC
Writing application : mkvmerge v83.0 ('Circle Of Friends') 64-bit
Writing library : libebml v1.4.5 + libmatroska v1.7.1
Cover : Yes
Attachments : cover.jpg / small_cover.jpg

Video
ID : 1
Format : AVC
Format/Info : Advanced Video Codec
Format profile : [email protected]
Format settings : CABAC / 12 Ref Frames
Format settings, CABAC : Yes
Format settings, Reference : 12 frames
Codec ID : V_MPEG4/ISO/AVC
Duration : 1 h 49 min
Bit rate : 2 798 kb/s
Width : 1 280 pixels
Height : 534 pixels
Display aspect ratio : 2.40:1
Frame rate mode : Constant
Frame rate : 24.000 FPS
Color space : YUV
Chroma subsampling : 4:2:0
Bit depth : 8 bits
Scan type : Progressive
Bits/(Pixel*Frame) : 0.171
Stream size : 2.14 GiB (50%)
Title : -=DoMiNo=-
Writing library : x264 core 164 r3179+58M 2d8d988 t_mod_New [(8 & 10)-DoMiNo- X86_64]
Encoding settings : cabac=1 / ref=12 / deblock=1:-2:-1 / analyse=0x3:0x133 / me=umh / subme=9 / psy=1 / fade_compensate=0.00 / psy_rd=1.00:0.15 / mixed_ref=1 / me_range=32 / chroma_me=1 / trellis=2 / 8x8dct=1 / cqm=0 / deadzone=21,11 / fast_pskip=0 / chroma_qp_offset=-3 / threads=17 / lookahead_threads=4 / sliced_threads=0 / nr=0 / decimate=0 / interlaced=0 / bluray_compat=0 / constrained_intra=0 / fgo=0 / bframes=10 / b_pyramid=2 / b_adapt=2 / b_bias=0 / direct=1 / weightb=1 / open_gop=0 / weightp=2 / keyint=250 / keyint_min=24 / scenecut=40 / intra_refresh=0 / rc_lookahead=60 / rc=crf / mbtree=0 / crf=19.0000 / qcomp=0.60 / qpmin=0:0:0 / qpmax=69:69:69 / qpstep=4 / vbv_maxrate=50000 / vbv_bufsize=62500 / crf_max=0.0 / nal_hrd=none / filler=0 / ip_ratio=1.35 / pb_ratio=1.30 / aq=1:0.90 / aq-sensitivity=10.00 / aq-factor=1.00:1.00:1.00 / aq2=0 / aq3=0
Language : English
Default : Yes
Forced : No

Audio #1
ID : 2
Format : AC-3
Format/Info : Audio Coding 3
Commercial name : Dolby Digital
Codec ID : A_AC3
Duration : 1 h 49 min
Bit rate mode : Constant
Bit rate : 192 kb/s
Channel(s) : 2 channels
Channel layout : L R
Sampling rate : 48.0 kHz
Frame rate : 31.250 FPS (1536 SPF)
Compression mode : Lossy
Stream size : 150 MiB (3%)
Title : Dub HDRezka Studio
Language : Russian
Service kind : Complete Main
Default : Yes
Forced : No

Audio #2
ID : 3
Format : AC-3
Format/Info : Audio Coding 3
Commercial name : Dolby Digital
Codec ID : A_AC3
Duration : 1 h 49 min
Bit rate mode : Constant
Bit rate : 192 kb/s
Channel(s) : 2 channels
Channel layout : L R
Sampling rate : 48.0 kHz
Frame rate : 31.250 FPS (1536 SPF)
Compression mode : Lossy
Stream size : 150 MiB (3%)
Title : MVO Red Head Sound
Language : Russian
Service kind : Complete Main
Default : No
Forced : No

Audio #3
ID : 4
Format : AC-3
Format/Info : Audio Coding 3
Commercial name : Dolby Digital
Codec ID : A_AC3
Duration : 1 h 49 min
Bit rate mode : Constant
Bit rate : 448 kb/s
Channel(s) : 6 channels
Channel layout : L R C LFE Ls Rs
Sampling rate : 48.0 kHz
Frame rate : 31.250 FPS (1536 SPF)
Compression mode : Lossy
Stream size : 351 MiB (8%)
Title : MVO Jaskier
Language : Russian
Service kind : Complete Main
Default : No
Forced : No

Audio #4
ID : 5
Format : AC-3
Format/Info : Audio Coding 3
Commercial name : Dolby Digital
Codec ID : A_AC3
Duration : 1 h 49 min
Bit rate mode : Constant
Bit rate : 448 kb/s
Channel(s) : 6 channels
Channel layout : L R C LFE Ls Rs
Sampling rate : 48.0 kHz
Frame rate : 31.250 FPS (1536 SPF)
Compression mode : Lossy
Stream size : 351 MiB (8%)
Title : MVO TVShows
Language : Russian
Service kind : Complete Main
Default : No
Forced : No

Audio #5
ID : 6
Format : AC-3
Format/Info : Audio Coding 3
Commercial name : Dolby Digital
Codec ID : A_AC3
Duration : 1 h 49 min
Bit rate mode : Constant
Bit rate : 448 kb/s
Channel(s) : 6 channels
Channel layout : L R C LFE Ls Rs
Sampling rate : 48.0 kHz
Frame rate : 31.250 FPS (1536 SPF)
Compression mode : Lossy
Stream size : 351 MiB (8%)
Title : MVO LostFilm
Language : Russian
Service kind : Complete Main
Default : No
Forced : No

Audio #6
ID : 7
Format : AC-3
Format/Info : Audio Coding 3
Commercial name : Dolby Digital
Codec ID : A_AC3
Duration : 1 h 49 min
Bit rate mode : Constant
Bit rate : 640 kb/s
Channel(s) : 6 channels
Channel layout : L R C LFE Ls Rs
Sampling rate : 48.0 kHz
Frame rate : 31.250 FPS (1536 SPF)
Compression mode : Lossy
Stream size : 502 MiB (11%)
Title : DVO ViruseProject
Language : Russian
Service kind : Complete Main
Default : No
Forced : No

Audio #7
ID : 8
Format : AC-3
Format/Info : Audio Coding 3
Commercial name : Dolby Digital
Codec ID : A_AC3
Duration : 1 h 49 min
Bit rate mode : Constant
Bit rate : 448 kb/s
Channel(s) : 6 channels
Channel layout : L R C LFE Ls Rs
Sampling rate : 48.0 kHz
Frame rate : 31.250 FPS (1536 SPF)
Compression mode : Lossy
Stream size : 351 MiB (8%)
Title : Original
Language : English
Service kind : Complete Main
Default : No
Forced : No

Text #1
ID : 9
Format : UTF-8
Codec ID : S_TEXT/UTF8
Codec ID/Info : UTF-8 Plain Text
Duration : 1 h 2 min
Bit rate : 0 b/s
Frame rate : 0.002 FPS
Count of elements : 9
Stream size : 228 Bytes (0%)
Title : Forced
Language : Russian
Default : No
Forced : No

Text #2
ID : 10
Format : UTF-8
Codec ID : S_TEXT/UTF8
Codec ID/Info : UTF-8 Plain Text
Duration : 1 h 46 min
Bit rate : 35 b/s
Frame rate : 0.107 FPS
Count of elements : 686
Stream size : 27.8 KiB (0%)
Title : Full
Language : Russian
Default : No
Forced : No

Text #3
ID : 11
Format : UTF-8
Codec ID : S_TEXT/UTF8
Codec ID/Info : UTF-8 Plain Text
Duration : 1 h 43 min
Bit rate : 23 b/s
Frame rate : 0.113 FPS
Count of elements : 698
Stream size : 17.5 KiB (0%)
Title : Full
Language : English
Default : No
Forced : No

Text #4
ID : 12
Format : UTF-8
Codec ID : S_TEXT/UTF8
Codec ID/Info : UTF-8 Plain Text
Duration : 1 h 43 min
Bit rate : 28 b/s
Frame rate : 0.145 FPS
Count of elements : 898
Stream size : 21.4 KiB (0%)
Title : Full SDH
Language : English
Default : No
Forced : No

Menu
00:00:00.000 : en:Chapter 01
00:05:50.000 : en:Chapter 02
00:11:40.000 : en:Chapter 03
00:17:30.000 : en:Chapter 04
00:23:20.000 : en:Chapter 05
00:29:10.000 : en:Chapter 06
00:35:00.000 : en:Chapter 07
00:40:50.000 : en:Chapter 08
00:46:40.000 : en:Chapter 09
00:52:30.000 : en:Chapter 10
00:58:20.000 : en:Chapter 11
01:04:10.000 : en:Chapter 12
01:10:00.000 : en:Chapter 13
01:15:50.000 : en:Chapter 14
01:21:40.000 : en:Chapter 15
01:27:30.000 : en:Chapter 16
01:33:20.000 : en:Chapter 17
01:39:10.000 : en:Chapter 18
01:45:00.000 : en:Chapter 19

Другие фильмы
У данной публикации пока нет комментариев.
Будь первым, оставь своё мнение в комментариях!
Информация
Посетители, находящиеся в группе Гости, не могут оставлять комментарии к данной публикации.
Самый популярный релиз недели
Донаты
Мы в соц. сетях / RSS

Лучшие релизы месяца
Лучшие SD недели
Лучшие 720p недели
Лучшие 1080p недели
Лучшие 4K недели
Вы недавно смотрели
Реклама
Последние комментарии
...

Tony1984

Вчера, 14:36

...

bolonka123

19 апреля 2024 10:05

...

Sergunka

17 апреля 2024 23:31

...

-=DoMiNo=-

17 апреля 2024 13:52

...

bolonka123

17 апреля 2024 11:43

Реклама