+20

Ночной сторож: Демоны передаются по наследству / Nattevagten - Dæmoner går i arv / Nightwatch: Demons Are Forever (2023) BDRip 720p от DoMiNo & селезень | P, P2 | TVShows, ViruseProject

Информация о фильме
Название: Ночной сторож: Демоны передаются по наследству
Оригинальное название: Nattevagten - Dæmoner går i arv
Год выхода: 2023
Жанр: ужасы, триллер, детектив
Режиссер: Уле Борнедаль
В ролях: Фанни Борнедаль, Николай Костер-Вальдау, Алекс Хег Андерсен, Сара Виктория Бьеррегор Кристенсен, Ким Бодния, Вибеке Хаструп, Pelle Emil Hebsgaard, Casper Kjær Jensen, Александр Беранг Кешткар, Bodil Lassen и т.д.

О фильме:
Эмма, студентка медфака, устраивается на работу ночным сторожем в Институт судебно-медицинской экспертизы в то самое место, где серийный убийца-психопат комиссар Вёрмер 30 лет назад пытался убить ее родителей. С тех пор их преследовала память о той ночи, и Эмма тоже унаследовала травму своих родителей. Молодая девушка решает выяснить, что на самом деле тогда произошло. Встреча с преступником запускает цепь судьбоносных событий. Начинается кровавая месть всем тем, кто в свое время решил судьбу Вермера.
"Ночной сторож: Демоны передаются по наследству" продолжение фильма "Ночной сторож" 1994 года.

Страна: Дания
Продолжительность: 01:57:44
Перевод 1: Профессиональный (многоголосый, закадровый) | TVShows
Перевод 2: Профессиональный (двухголосый, закадровый) | ViruseProject 18+
Субтитры: Английские, датские, финские, норвежские, шведские

Файл
Формат: Matroska
Качество: BDRip 720p
Видео: 1280x536 at 24.000 fps, [email protected], ~3669 kbps
Аудио 1: AC3, 6 ch, ~384 kbps - | Русский | Ночной сторож: Демоны передаются по наследству / Nattevagten - Dæmoner går i arv / Nightwatch: Demons Are Forever (2023) BDRip 720p от DoMiNo & селезень | P, P2 | TVShows, ViruseProject | TVShows
Аудио 2: AC3, 6 ch, ~640 kbps - | Русский | | ViruseProject
Аудио 3: AC3, 6 ch, ~640 kbps - | Датский |
Формат субтитров: softsub (SRT)

Авторизуйтесь для получения доступа к скачиванию

Нет аккаунта? Регистрация открыта и займёт меньше минуты

Вход Регистрация

x264 [info]: frame I: 1332 Avg QP: 12.72 size: 84565
x264 [info]: frame P: 32017 Avg QP: 14.31 size: 42197
x264 [info]: frame B: 136177 Avg QP: 16.30 size: 13039

General
Unique ID: 224193743947590549753599312983342499262 (0xA8AA24FCB9E49780A402402279ACC5BE)
Complete name: T: Nightwatch.Demons.Are.Forever.2023.BDRip.720p.x264.seleZen.mkv
Format: Matroska
Format version: Version 4
File size: 4.39 GiB
Duration: 1 h 57 min
Overall bit rate: 5 335 kb/s
Frame rate: 24.000 FPS
Movie name: Nightwatch.Demons.Are.Forever.2023.BDRip.720p.x264.seleZen
Encoded date: 24.05.2024 07:08:35 UTC
Writing application: mkvmerge v84.0 ('Sleeper') 64-bit
Writing library: libebml v1.4.5 + libmatroska v1.7.1
Cover: Yes
Attachments: cover.jpg / small_cover.jpg

Video
ID: 1
Format: AVC
Format/Info: Advanced Video Codec
Format profile: [email protected]
Format settings: CABAC / 12 Ref Frames
Format settings, CABAC: Yes
Format settings, Reference: 12 frames
Codec ID: V_MPEG4/ISO/AVC
Duration: 1 h 57 min
Bit rate: 3 669 kb/s
Width: 1 280 pixels
Height: 536 pixels
Display aspect ratio: 2.39:1
Frame rate mode: Constant
Frame rate: 24.000 FPS
Color space: YUV
Chroma subsampling: 4:2:0
Bit depth: 8 bits
Scan type: Progressive
Bits/(Pixel*Frame): 0.223
Stream size: 3.02 GiB (69%)
Title: -=DoMiNo=-
Writing library: x264 core 164 r3179+58M 2d8d988 t_mod_New [(8 & 10)-DoMiNo- X86_64]
Encoding settings: cabac=1 / ref=12 / deblock=1:-2:-2 / analyse=0×3:0×133 / me=umh / subme=10 / psy=1 / fade_compensate=0.00 / psy_rd=1.05:0.03 / mixed_ref=1 / me_range=32 / chroma_me=1 / trellis=2 / 8×8dct=1 / cqm=0 / deadzone=21,11 / fast_pskip=0 / chroma_qp_offset=-3 / threads=17 / lookahead_threads=4 / sliced_threads=0 / nr=0 / decimate=0 / interlaced=0 / bluray_compat=0 / constrained_intra=0 / fgo=0 / bframes=12 / b_pyramid=2 / b_adapt=2 / b_bias=0 / direct=3 / weightb=1 / open_gop=0 / weightp=2 / keyint=240 / keyint_min=24 / scenecut=40 / intra_refresh=0 / rc_lookahead=60 / rc=crf / mbtree=0 / crf=17.3000 / qcomp=0.60 / qpmin=0:0:0 / qpmax=69:69:69 / qpstep=4 / vbv_maxrate=50000 / vbv_bufsize=62500 / crf_max=0.0 / nal_hrd=none / filler=0 / ip_ratio=1.40 / pb_ratio=1.30 / aq=3:0.90 / aq-sensitivity=10.00 / aq-factor=1.00:1.00:1.00:1.00 / aq2=0 / aq3=0
Language: English
Default: Yes
Forced: No
Color range: Limited
Color primaries: BT.709
Transfer characteristics: BT.709
Matrix coefficients: BT.709

Audio #1
ID: 2
Format: AC-3
Format/Info: Audio Coding 3
Commercial name: Dolby Digital
Codec ID: A_AC3
Duration: 1 h 57 min
Bit rate mode: Constant
Bit rate: 384 kb/s
Channel (s): 6 channels
Channel layout: L R C LFE Ls Rs
Sampling rate: 48.0 kHz
Frame rate: 31.250 FPS (1536 SPF)
Compression mode: Lossy
Stream size: 323 MiB (7%)
Title: MVO -TVShows
Language: Russian
Service kind: Complete Main
Default: Yes
Forced: No
Dialog Normalization: -31 dB
cmixlev: -4.5 dB
surmixlev: -6 dB
dialnorm_Average: -31 dB
dialnorm_Minimum: -31 dB
dialnorm_Maximum: -31 dB

Audio #2
ID: 3
Format: AC-3
Format/Info: Audio Coding 3
Commercial name: Dolby Digital
Codec ID: A_AC3
Duration: 1 h 57 min
Bit rate mode: Constant
Bit rate: 640 kb/s
Channel (s): 6 channels
Channel layout: L R C LFE Ls Rs
Sampling rate: 48.0 kHz
Frame rate: 31.250 FPS (1536 SPF)
Compression mode: Lossy
Stream size: 539 MiB (12%)
Title: DVO -ViruseProject
Language: Russian
Service kind: Complete Main
Default: No
Forced: No
Dialog Normalization: -31 dB
cmixlev: -4.5 dB
surmixlev: -6 dB
dialnorm_Average: -31 dB
dialnorm_Minimum: -31 dB
dialnorm_Maximum: -31 dB

Audio #3
ID: 4
Format: AC-3
Format/Info: Audio Coding 3
Commercial name: Dolby Digital
Codec ID: A_AC3
Duration: 1 h 57 min
Bit rate mode: Constant
Bit rate: 640 kb/s
Channel (s): 6 channels
Channel layout: L R C LFE Ls Rs
Sampling rate: 48.0 kHz
Frame rate: 31.250 FPS (1536 SPF)
Compression mode: Lossy
Stream size: 539 MiB (12%)
Language: Danish
Service kind: Complete Main
Default: No
Forced: No
Dialog Normalization: -31 dB
cmixlev: -4.5 dB
surmixlev: -6 dB
dialnorm_Average: -31 dB
dialnorm_Minimum: -31 dB
dialnorm_Maximum: -31 dB

Text #1
ID: 5
Format: UTF-8
Codec ID: S_TEXT/UTF8
Codec ID/Info: UTF-8 Plain Text
Duration: 1 h 52 min
Bit rate: 41 b/s
Frame rate: 0.166 FPS
Count of elements: 1127
Stream size: 34.5 KiB (0%)
Language: English
Default: No
Forced: No

Text #2
ID: 6
Format: UTF-8
Codec ID: S_TEXT/UTF8
Codec ID/Info: UTF-8 Plain Text
Duration: 1 h 48 min
Bit rate: 0 b/s
Frame rate: 0.001 FPS
Count of elements: 4
Stream size: 134 Bytes (0%)
Title: Forced
Language: Danish
Default: No
Forced: No

Text #3
ID: 7
Format: UTF-8
Codec ID: S_TEXT/UTF8
Codec ID/Info: UTF-8 Plain Text
Duration: 1 h 57 min
Bit rate: 45 b/s
Frame rate: 0.149 FPS
Count of elements: 1049
Stream size: 39.2 KiB (0%)
Language: Danish
Default: No
Forced: No

Text #4
ID: 8
Format: UTF-8
Codec ID: S_TEXT/UTF8
Codec ID/Info: UTF-8 Plain Text
Duration: 1 h 57 min
Bit rate: 43 b/s
Frame rate: 0.143 FPS
Count of elements: 1010
Stream size: 37.1 KiB (0%)
Language: Finnish
Default: No
Forced: No

Text #5
ID: 9
Format: UTF-8
Codec ID: S_TEXT/UTF8
Codec ID/Info: UTF-8 Plain Text
Duration: 1 h 57 min
Bit rate: 43 b/s
Frame rate: 0.143 FPS
Count of elements: 1010
Stream size: 37.0 KiB (0%)
Language: Norwegian
Default: No
Forced: No

Text #6
ID: 10
Format: UTF-8
Codec ID: S_TEXT/UTF8
Codec ID/Info: UTF-8 Plain Text
Duration: 1 h 57 min
Bit rate: 44 b/s
Frame rate: 0.143 FPS
Count of elements: 1010
Stream size: 38.6 KiB (0%)
Language: Swedish
Default: No
Forced: No

Menu
00:00:00.000: en: Chapter 01
00:15:47.666: en: Chapter 02
00:30:31.833: en: Chapter 03
00:50:41.791: en: Chapter 04
01:03:20.000: en: Chapter 05
01:20:27.916: en: Chapter 06
01:34:22.583: en: Chapter 07
01:53:57.833: en: Chapter 08
01:57:43.583: en: Chapter 09

Другие фильмы
У данной публикации пока нет комментариев.
Будь первым, оставь своё мнение в комментариях!
Информация
Посетители, находящиеся в группе Гости, не могут оставлять комментарии к данной публикации.
Самый популярный релиз недели
Донаты
Мы в соц. сетях / RSS

Лучшие релизы месяца
Лучшие SD недели
Лучшие 720p недели
Лучшие 1080p недели
Лучшие 4K недели
Вы недавно смотрели
Реклама
Последние комментарии
...

Bonzo

14 июня 2024 14:52

...

rmzshka

13 июня 2024 17:48

...

rmzshka

13 июня 2024 12:24

...

LisNick

13 июня 2024 08:45

...

SkySpirit

8 июня 2024 19:54

Реклама